<?xml version="1.0" standalone="no"?>
<!DOCTYPE svg PUBLIC "-//W3C//DTD SVG 1.1//EN" "http://www.w3.org/Graphics/SVG/1.1/DTD/svg11.dtd">
<svg xmlns="http://www.w3.org/2000/svg">
<metadata>Generated by Fontastic.me</metadata>
<defs>
<font id="sociabble" horiz-adv-x="512">
<font-face font-family="sociabble" units-per-em="512" ascent="480" descent="-32"/>
<missing-glyph horiz-adv-x="512" />

<glyph glyph-name="app-store-bordered" unicode="&#121;" d="M309 259l0-9-5 0 0-5 5 0 0-20c0-6 3-9 11-9 1 0 2 0 3 0l0 6c-1 0-1 0-2 0-4 0-5 1-5 5l0 18 7 0 0 5-7 0 0 9-7 0z m34-43c10 0 16 6 16 17 0 11-6 18-16 18-10 0-17-7-17-18 0-11 7-17 17-17z m0 6c-6 0-10 4-10 11 0 8 4 12 10 12 5 0 9-4 9-12 0-7-4-11-9-11z m21-6l7 0 0 20c0 5 3 9 8 9 2 0 4-1 4-1l0 7c0 0-2 0-3 0-4 0-8-2-9-6l-1 0 0 5-6 0 0-34z m36 29c5 0 8-3 9-8l-18 0c1 5 4 8 9 8z m8-20c-1-2-4-4-8-4-5 0-9 4-9 10l0 1 24 0 0 2c0 11-5 17-15 17-10 0-16-7-16-18 0-11 6-17 16-17 8 0 13 3 15 9z m-143 4c0-9 7-14 18-14 11 0 18 6 18 15 0 7-4 11-14 13l-5 1c-6 2-9 4-9 7 0 4 4 7 10 7 6 0 9-3 10-7l7 0c0 8-7 13-17 13-10 0-17-5-17-14 0-6 4-11 12-13l7-1c6-1 9-4 9-7 0-4-5-7-11-7-6 0-10 2-11 7z m-70 22c-5 0-9-2-11-6l-1 0 0 5-6 0 0-45 7 0 0 16 0 0c2-3 6-5 11-5 8 0 14 6 14 17 0 11-6 18-14 18z m-2-29c-6 0-9 4-9 11 0 8 3 12 9 12 6 0 9-4 9-12 0-7-3-11-9-11z m40 29c-5 0-9-2-11-6l-1 0 0 5-6 0 0-45 7 0 0 16 0 0c2-3 6-5 11-5 8 0 14 6 14 17 0 11-6 18-14 18z m-2-29c-6 0-10 4-10 11 0 8 4 12 10 12 5 0 9-4 9-12 0-7-4-11-9-11z m-66-6l8 0-17 47-8 0-17-47 7 0 5 13 17 0z m-14 39l1 0 7-20-15 0 7 20z m-16 44l0-23 8 0c7 0 11 4 11 12 0 7-4 11-11 11l-8 0z m4-3l4 0c5 0 8-3 8-9 0-5-3-8-8-8l-4 0z m27-20c5 0 8 3 8 9 0 5-3 9-8 9-5 0-8-4-8-9 0-6 3-9 8-9z m0 3c-3 0-4 2-4 6 0 3 1 6 4 6 3 0 5-3 5-6 0-4-2-6-5-6z m34 14l-3 0-3-13 0 0-4 13-3 0-4-13 0 0-3 13-3 0 4-17 4 0 3 13 1 0 3-13 4 0 4 17z m4-17l4 0 0 10c0 3 1 4 4 4 2 0 3-1 3-4l0-10 4 0 0 11c0 4-2 7-6 7-3 0-4-2-5-3l-1 0 0 2-3 0 0-17z m20 0l3 0 0 24-3 0z m16 0c5 0 8 3 8 9 0 5-3 9-8 9-5 0-8-4-8-9 0-6 3-9 8-9z m0 3c-3 0-4 2-4 6 0 3 1 6 4 6 3 0 5-3 5-6 0-4-2-6-5-6z m18 0c-1 0-3 1-3 2 0 2 1 2 4 3l4 0 0-2c0-2-2-3-5-3z m0-3c2 0 4 1 5 3l0 0 0-3 3 0 0 12c0 3-2 6-7 6-3 0-6-2-7-5l4 0c0 1 1 2 3 2 3 0 4-1 4-3l0-2-5 0c-4 0-6-2-6-5 0-3 2-5 6-5z m20 0c2 0 4 1 5 3l0 0 0-3 4 0 0 24-4 0 0-9 0 0c-1 1-3 3-5 3-5 0-7-4-7-9 0-6 2-9 7-9z m1 14c2 0 4-2 4-5 0-4-2-6-4-6-3 0-5 2-5 6 0 3 2 5 5 5z m30-14c5 0 8 3 8 9 0 5-4 9-8 9-6 0-9-4-9-9 0-6 3-9 9-9z m0 3c-3 0-5 2-5 6 0 3 2 6 5 6 2 0 4-3 4-6 0-4-2-6-4-6z m12-3l3 0 0 10c0 3 2 4 5 4 2 0 3-1 3-4l0-10 4 0 0 11c0 4-2 7-6 7-3 0-5-2-5-3l-1 0 0 2-3 0z m30 22l0-5-3 0 0-3 3 0 0-9c0-4 2-5 5-5 1 0 2 0 2 0l0 3c0 0 0 0-1 0-2 0-2 1-2 2l0 9 3 0 0 3-3 0 0 5z m12-22l3 0 0 10c0 3 2 4 5 4 2 0 3-1 3-4l0-10 4 0 0 11c0 4-3 7-6 7-3 0-5-2-6-4l0 0 0 10-3 0 0-24z m27 15c2 0 4-2 4-5l-9 0c1 3 2 5 5 5z m4-10c-1-2-2-2-4-2-3 0-5 2-5 5l0 0 12 0 0 1c0 5-2 9-7 9-5 0-8-4-8-9 0-6 3-9 8-9 4 0 6 2 7 5z m-300-26c0 6 3 12 9 16-4 5-9 8-15 8-7 0-13-4-16-4-3 0-8 4-14 4-7-1-13-5-17-11-7-12-2-31 5-41 4-5 8-11 13-11 6 0 8 4 14 4 6 0 8-4 14-4 5 0 9 5 12 10 3 4 5 8 6 12-7 3-11 10-11 17z m-10 31c3 3 4 8 4 13-5-1-9-3-12-7-3-3-5-8-5-12 5 0 10 2 13 6z m352 46l-360 0c-42 0-76-34-76-76 0-42 34-76 76-76l360 0c42 0 76 34 76 76 0 42-34 76-76 76z m-360-4l360 0c40 0 72-32 72-72 0-40-32-72-72-72l-360 0c-40 0-72 32-72 72 0 40 32 72 72 72z"/>
<glyph glyph-name="google-play-bordered" unicode="&#122;" d="M258 249c-8 0-16-6-16-16 0-9 8-16 16-16 9 0 16 7 16 16 0 10-7 16-16 16z m0-25c-4 0-9 4-9 9 0 6 5 10 9 10 5 0 9-4 9-10 0-5-4-9-9-9z m-35 25c-9 0-16-6-16-16 0-9 7-16 16-16 9 0 16 7 16 16 0 10-7 16-16 16z m0-25c-5 0-9 4-9 9 0 6 4 10 9 10 5 0 9-4 9-10 0-5-4-9-9-9z m-41 20l0-6 16 0c-1-4-2-7-4-9-2-2-6-5-12-5-10 0-18 8-18 18 0 10 8 18 18 18 5 0 9-2 12-5l5 5c-4 4-10 7-17 7-14 0-26-11-26-25 0-13 12-25 26-25 7 0 13 3 17 7 4 5 6 11 6 16 0 2 0 3-1 4l-22 0z m170-5c-1 4-5 10-14 10-8 0-15-6-15-16 0-9 7-16 16-16 8 0 12 5 14 7l-6 4c-2-3-4-4-8-4-3 0-6 1-7 5l21 8z m-22-5c0 6 5 9 9 9 3 0 5-1 6-3z m-17-16l7 0 0 47-7 0z m-12 28l0 0c-1 2-4 3-8 3-8 0-16-7-16-16 0-9 8-16 16-16 4 0 7 2 8 4l0 0 0-2c0-6-3-10-8-10-4 0-7 3-8 6l-6-3c1-4 6-9 14-9 8 0 15 5 15 17l0 28-7 0 0-2z m-8-22c-4 0-9 4-9 9 0 6 5 10 9 10 5 0 9-4 9-10 0-5-4-9-9-9z m92 41l-17 0 0-47 7 0 0 18 10 0c8 0 16 6 16 15 0 9-8 14-16 14z m0-22l-10 0 0 16 10 0c6 0 9-4 9-8 0-4-3-8-9-8z m44 6c-5 0-11-2-13-7l6-2c2 2 4 3 7 3 4 0 7-2 7-6l0 0c-1 0-4 1-7 1-7 0-14-3-14-10 0-6 6-11 12-11 5 0 7 3 9 5l0 0 0-4 7 0 0 18c0 9-6 13-14 13z m-1-25c-2 0-6 1-6 4 0 3 4 5 8 5 3 0 4-1 6-2 0-4-4-7-8-7z m40 24l-8-20-1 0-8 20-7 0 12-28-7-16 7 0 20 44z m-64-30l7 0 0 47-7 0z m-224 75c0-3-1-6-2-8-3-2-5-3-9-3-3 0-6 1-8 3-2 2-3 5-3 9 0 3 1 6 3 8 2 2 5 3 8 3 2 0 3 0 5-1 1 0 3-1 3-2l-2-2c-1 2-3 3-6 3-2 0-4-1-6-3-2-2-2-4-2-6 0-3 0-5 2-7 2-2 4-2 6-2 3 0 5 0 7 2 1 1 1 3 1 5l-8 0 0 2 11 0c0 0 0-1 0-1z m18 9l-11 0 0-7 10 0 0-3-10 0 0-7 11 0 0-3-13 0 0 23 13 0z m12-20l-3 0 0 20-6 0 0 3 15 0 0-3-6 0z m18 0l0 23 2 0 0-23z m15 0l-3 0 0 20-6 0 0 3 16 0 0-3-7 0z m36 3c-2-2-5-3-8-3-4 0-6 1-9 3-2 3-3 5-3 9 0 3 1 6 3 8 3 2 5 3 9 3 3 0 6-1 8-3 2-2 3-5 3-8 0-4-1-6-3-9z m-14 2c1-2 3-2 6-2 2 0 4 0 6 2 2 2 2 4 2 7 0 2 0 4-2 6-2 2-4 3-6 3-3 0-5-1-6-3-2-2-3-4-3-6 0-3 1-5 3-7z m21-5l0 23 4 0 11-18 0 0 0 5 0 13 3 0 0-23-3 0-12 19 0 0 0-5 0-14z m-239 220c0-1 0-1-1-2 0 0-1-1-2-1-1 0-2 1-2 1-1 1-1 2-1 2 0 1 0 2 1 3 0 0 1 1 2 1 0 0 1 0 1-1 1 0 1 0 1 0l0-1c-1 1-1 1-2 1-1 0-1 0-2-1 0 0 0-1 0-2 0 0 0-1 0-1 1-1 1-1 2-1 1 0 1 0 2 1 0 0 0 0 0 1l-2 0 0 1 3 0c0 0 0-1 0-1z m5 3l-3 0 0-2 2 0 0-1-2 0 0-2 3 0 0-1-4 0 0 7 4 0z m3-6l-1 0 0 6-2 0 0 1 4 0 0-1-1 0z m4 0l0 7 1 0 0-7z m5 0l-1 0 0 6-2 0 0 1 4 0 0-1-1 0z m9 1c0 0-1-1-2-1-1 0-2 1-2 1-1 1-1 2-1 2 0 1 0 2 1 3 0 0 1 1 2 1 1 0 2-1 2-1 1-1 1-2 1-3 0 0 0-1-1-2z m-4 1c1-1 1-1 2-1 1 0 1 0 2 1 0 0 0 1 0 1 0 1 0 2 0 2-1 1-1 1-2 1-1 0-1 0-2-1 0 0 0-1 0-2 0 0 0-1 0-1z m6-2l0 7 1 0 3-5 0 0 0 1 0 4 1 0 0-7-1 0-3 5 0 0 0-1 0-4z m-35-198c0-1-1-2-1-3l0-84c0-1 1-2 1-3l45 45z m3-93c1-1 4-1 6 1l53 30-14 14z m63 33l16 10c6 3 6 7 0 10l-16 10-15-15z m-4 32l-53 30c-2 2-5 2-6 1l45-45z m333 58l-358 0c-41 0-75-33-75-75 0-42 34-75 75-75l358 0c41 0 75 33 75 75 0 42-34 75-75 75z m-358-3l358 0c39 0 71-32 71-72 0-40-32-72-71-72l-358 0c-39 0-71 32-71 72 0 40 32 72 71 72z"/>
<glyph glyph-name="app-gallery-bordered" unicode="&#65;" d="M175 235l14 0-5 13c-1 2-1 4-2 6-1-2-1-4-2-6z m16-6l-18 0-4-12-8 0 17 45 8 0 18-45-9 0z m36-4c2 2 2 6 2 10 0 3 0 6-2 8-1 1-3 2-5 2-1 0-3 0-4-1-1-1-2-2-3-3l0-18c0 0 1 0 2 0 1-1 2-1 3-1 3 0 5 1 7 3z m-20 17c0 3 0 6 0 9l7 0c0-2 0-3 0-5 3 4 7 5 11 5 2 0 4 0 6-2 2-1 3-2 4-5 1-2 2-5 2-9 0-4-1-7-2-10-1-3-3-5-6-6-2-2-5-2-8-2-2 0-4 0-6 1l0-14-8-1z m55-17c1 2 2 6 2 10 0 3-1 6-2 8-1 1-3 2-5 2-2 0-3 0-4-1-1-1-3-2-4-3l0-18c1 0 2 0 3 0 1-1 2-1 3-1 3 0 5 1 7 3z m-20 17c0 3 0 6-1 9l8 0c0-2 0-3 0-5 3 4 6 5 10 5 3 0 5 0 6-2 2-1 4-2 5-5 1-2 2-5 2-9 0-4-1-7-2-10-2-3-3-5-6-6-2-2-5-2-8-2-2 0-5 0-7 1l0-14-7-1z m44-23c-3 2-6 5-8 8-2 4-2 8-2 12 0 5 1 10 3 13 2 4 4 6 8 8 3 2 7 3 12 3 2 0 5-1 7-1 2-1 5-2 7-3l-2-5c-4 1-8 2-12 2-3 0-6 0-8-2-2-1-4-3-6-5-1-3-1-6-1-10 0-3 0-6 1-8 1-3 3-5 5-6 2-2 5-2 8-2 1 0 3 0 4 0 2 0 3 1 4 1l0 9-10 0 0 6 18 0 0-19c-3-1-5-2-8-2-3-1-6-1-9-1-4 0-8 1-11 2z m50 4c2 1 3 2 4 3l0 6c-2 1-4 1-5 1-3 0-5-1-6-2-2-1-2-2-2-4 0-1 0-3 1-4 1 0 2-1 4-1 1 0 3 1 4 1z m5-6c0 2 0 3-1 5-1-2-2-3-4-4-2-1-4-1-7-1-1 0-3 0-5 1-1 1-3 2-3 3-1 2-2 4-2 6 0 3 1 6 4 7 2 2 6 3 11 3 2 0 4 0 6 0l0 1c0 2 0 5-2 6-1 1-3 2-5 2-2 0-3-1-5-1-2-1-4-1-5-2l-1 6c1 0 3 1 5 1 2 1 5 1 7 1 3 0 5 0 7-1 2-1 4-3 5-5 1-2 2-5 2-8l0-13c0-2 0-4 0-7z m13 8l0 40 7 0 0-38c0-2 1-3 1-3 1-1 1-1 2-1 1 0 1 0 2 0l1-5c-1-1-1-1-2-1-1 0-2 0-3 0-6 0-8 3-8 8z m19 0l0 40 7 0 0-38c0-2 1-3 1-3 0-1 1-1 2-1 1 0 1 0 2 0l1-5c-1-1-1-1-2-1-1 0-2 0-3 0-6 0-8 3-8 8z m37 13c0 2-1 4-2 6-1 1-3 2-5 2-2 0-3-1-5-2-1-2-2-4-2-6z m7-5l-21 0c0-7 3-11 10-11 1 0 3 1 4 1 2 0 4 1 5 2l2-6c-4-1-8-2-13-2-3 0-6 0-9 2-2 1-4 3-5 5-1 3-2 6-2 10 0 3 1 6 2 9 1 3 3 5 5 6 3 1 5 2 8 2 3 0 6-1 8-2 2-1 4-3 5-6 1-2 1-5 1-8z m6 9c0 2 0 5 0 9l7 0c0-1 0-2 0-4 1-1 1-2 1-3 1 2 1 3 2 4 1 1 2 2 3 2 1 1 3 1 4 1 1 0 2 0 3 0l-1-7c-1 0-1 1-2 1-2 0-4-1-5-2-1-1-3-2-4-4l0-22-8 0z m24-38c-1 0-2 0-2 0l1 6c1 0 1 0 2-1 1 0 2 0 2 0 4 0 6 2 8 7l0 1-12 34 8 0 6-19c1-3 2-6 2-8 1 3 2 5 2 8l7 19 7 0-12-34c-1-3-2-6-4-8-1-2-3-3-4-4-2-1-4-2-7-2-1 0-2 0-4 1z m-286 101l13 0 0-4-9 0 0-6 9 0 0-3-9 0 0-7 10 0-1-4-13 0z m23-12l-7 12 4 0 5-9 5 9 4 0-7-12 8-12-5 0-5 10-6-10-4 0z m25 1c1 1 1 2 1 3 0 2 0 3-1 4-1 0-2 0-4 0l-2 0 0-8c1 0 2 0 2 0 2 0 3 0 4 1z m-10 11l6 0c3 0 5-1 7-2 1-1 2-3 2-5 0-2 0-3-1-4 0-2-1-2-3-3-1-1-2-1-4-1-1 0-2 0-3 0l0-9-4 0z m19 0l4 0 0-20 10 0-1-4-13 0z m30-20c1 1 2 2 3 4 0 1 0 2 0 4 0 2 0 3 0 4-1 2-2 3-3 4-1 0-2 1-4 1-1 0-3-1-4-1-1-1-2-2-2-4-1-1-1-2-1-4 0-2 0-3 0-4 1-2 2-3 3-4 1 0 2-1 4-1 2 0 3 1 4 1z m-10-2c-2 1-3 2-4 4-1 1-1 3-1 6 0 2 0 4 1 6 1 2 2 3 4 4 2 1 4 2 6 2 3 0 5-1 6-2 2-1 3-2 4-4 1-1 2-3 2-6 0-2-1-4-2-6-1-2-2-3-4-4-2-1-4-2-6-2-3 0-5 1-6 2z m28 11c1 0 2 0 3 0 1 1 1 1 2 2 0 0 0 1 0 2 0 1 0 2-1 3-1 0-2 0-3 0l-3 0 0-7z m-6 11l7 0c3 0 5-1 6-2 2-1 2-3 2-5 0-1 0-2-1-3 0-1-1-1-1-2-1-1-2-1-3-1l8-11-5 0-6 10-3 0 0-10-4 0z m21 0l13 0 0-4-9 0 0-6 8 0 0-3-8 0 0-7 9 0 0-4-13 0z m28 0l4 0 0-24-4 0z m15-4l-8 0 1 4 18 0-1-4-6 0 0-20-4 0z m38-16c1 1 2 2 3 4 0 1 1 2 1 4 0 2-1 3-1 4-1 2-1 3-2 4-2 0-3 1-5 1-1 0-3-1-4-1-1-1-2-2-2-4-1-1-1-2-1-4 0-2 0-3 1-4 0-2 1-3 2-4 1 0 3-1 4-1 2 0 3 1 4 1z m-10-2c-2 1-3 2-4 4-1 1-1 3-1 6 0 2 0 4 1 6 1 2 2 3 4 4 2 1 4 2 7 2 2 0 4-1 6-2 1-1 3-2 3-4 1-1 2-3 2-6 0-2-1-4-2-6-1-2-2-3-4-4-2-1-4-2-6-2-2 0-4 1-6 2z m22 22l5 0 11-18c0 1 0 3 0 4l0 14 4 0 0-24-5 0-11 19c0-2 0-4 0-6l0-13-4 0z m-296-57l3 0-2 5z m27 56l-42 0c-20 0-28-7-28-27l0-42c0-20 8-27 28-27l42 0c20 0 27 7 27 27l0 42c0 20-7 27-27 27z m-28-58l-2-3-2 0 5 13 3 0 5-13-3 0-1 3z m42-3l2 0 0 13-2 0z m-10 6l4 0 0 2-4 0 0 3 6 0 0 2-9 0 0-13 10 0 0 3-7 0z m-10-2l-3 9-2 0-3-9-3 9-3 0 5-13 2 0 3 9 3-9 2 0 4 13-3 0z m-30 2c0-2-1-3-3-3-2 0-3 1-3 3l0 7-2 0 0-7c0-4 2-6 5-6 3 0 5 2 5 6l0 7-2 0z m-15 7l3 0 0-13-3 0 0 5-5 0 0-5-3 0 0 13 3 0 0-5 5 0z m14 32c0-9 7-16 16-16 9 0 16 7 16 16l-2 0c0-7-7-14-14-14-8 0-14 7-14 14z m366 44l-356 0c-42 0-76-34-76-76 0-42 34-76 76-76l356 0c42 0 76 34 76 76 0 42-34 76-76 76z m-356-3l356 0c40 0 72-33 72-73 0-40-32-73-72-73l-356 0c-40 0-72 33-72 73 0 40 32 73 72 73z"/>
<glyph glyph-name="instagram" unicode="&#66;" d="M256 466c68 0 77 0 103-2 25-1 39-5 48-8 12-5 20-11 29-20 9-9 15-17 19-29 4-9 8-23 9-47 1-27 2-36 2-104 0-68-1-76-2-103-1-25-5-39-9-48-4-12-10-20-19-29-9-9-17-15-29-19-9-4-23-8-48-9-27-1-35-2-103-2-68 0-76 1-103 2-25 1-39 5-48 9-12 4-20 10-29 19-9 9-15 17-19 29-4 9-8 23-9 48-1 27-2 35-2 103 0 69 1 77 2 104 1 25 5 38 9 47 4 12 10 21 19 29 9 9 17 15 29 20 9 3 23 7 48 8 27 2 35 2 103 2z m0 46c-69 0-78 0-105-2-28-1-46-5-63-11-16-7-31-16-45-30-14-14-23-29-30-45-6-17-10-35-11-62-2-28-2-37-2-106 0-70 0-78 2-106 1-27 5-45 11-62 7-17 16-31 30-45 14-14 29-23 45-30 17-6 35-10 62-11 28-2 36-2 106-2 69 0 78 0 105 2 28 1 46 5 63 11 16 7 31 16 45 30 14 14 23 28 29 45 7 17 11 35 12 62 1 28 2 36 2 106 0 69-1 78-2 105-1 28-5 46-12 62-6 17-15 32-29 46-14 14-28 23-45 29-17 7-35 11-62 12-28 2-36 2-106 2z m0-125c-73 0-131-58-131-131 0-73 58-132 131-132 73 0 132 59 132 132 0 73-59 131-132 131z m0-216c-47 0-85 38-85 85 0 47 38 85 85 85 47 0 85-38 85-85 0-47-38-85-85-85z m167 222c0-17-13-31-30-31-17 0-31 14-31 31 0 17 14 30 31 30 17 0 30-13 30-30z"/>
<glyph glyph-name="linkedin" unicode="&#67;" d="M474 512l-436 0c-21 0-38-17-38-37l0-438c0-20 17-37 38-37l436 0c21 0 38 17 38 37l0 438c0 20-17 37-38 37z m-322-436l-76 0 0 244 76 0z m-38 277c-24 0-44 20-44 44 0 25 20 44 44 44 24 0 44-19 44-44 0-24-20-44-44-44z m322-277l-76 0 0 118c0 29 0 65-39 65-40 0-46-31-46-63l0-120-75 0 0 244 72 0 0-33 1 0c11 19 35 39 72 39 77 0 91-50 91-116z"/>
<glyph glyph-name="youtube" unicode="&#68;" d="M507 358c0 0-5 36-20 51-20 21-42 21-52 22-71 5-179 5-179 5l0 0c0 0-108 0-179-5-10-1-32-1-51-22-16-15-21-51-21-51 0 0-5-41-5-82l0-39c0-42 5-83 5-83 0 0 5-35 20-51 20-20 46-20 57-22 41-4 174-5 174-5 0 0 108 0 179 5 10 2 32 2 52 22 15 16 20 51 20 51 0 0 5 41 5 83l0 39c0 41-5 82-5 82z m-304-168l0 144 138-73z"/>
<glyph glyph-name="twitter-old" unicode="&#69;" d="M161 48c193 0 299 160 299 299 0 4 0 9 0 13 20 15 38 34 52 55-19-9-39-14-60-17 22 13 38 34 46 58-21-12-43-20-67-25-16 17-37 28-59 32-23 3-47-1-67-11-20-11-37-29-46-50-10-21-12-44-7-67-42 2-82 13-120 32-37 19-70 45-96 78-14-23-18-51-12-77 6-26 22-48 44-63-16 0-33 5-47 13l0-2c0-24 8-47 23-66 16-19 37-32 61-37-16-4-32-4-48-1 7-21 20-39 38-53 17-13 39-20 61-20-38-30-84-45-131-45-8 0-17 0-25 1 48-31 104-47 161-47z"/>
<glyph glyph-name="facebook" unicode="&#71;" d="M512 256c0 141-115 256-256 256-141 0-256-115-256-256 0-128 94-234 216-253l0 179-65 0 0 74 65 0 0 56c0 65 38 100 97 100 28 0 57-5 57-5l0-63-32 0c-32 0-42-20-42-40l0-48 71 0-11-74-60 0 0-179c122 19 216 125 216 253z"/>
<glyph glyph-name="mail" unicode="&#97;" d="M512 309l0-227c0-12-4-23-13-32-9-9-20-13-33-13l-420 0c-13 0-24 4-33 13-9 9-13 20-13 32l0 227c8-9 18-17 29-25 69-47 116-79 142-98 11-8 20-15 26-19 7-4 16-9 27-14 12-4 22-7 32-7l0 0c10 0 20 3 32 7 11 5 20 10 27 14 6 4 15 11 26 19 33 23 80 56 142 98 11 8 21 16 29 25z m0 84c0-15-5-29-14-43-9-14-21-25-35-35-71-50-116-81-134-93-1-1-6-4-12-9-6-4-11-8-15-11-4-2-9-5-15-9-6-3-11-6-16-8-6-1-10-2-15-2l0 0c-5 0-9 1-15 2-5 2-10 5-16 8-6 4-11 7-15 9-4 3-9 7-15 11-6 5-11 8-12 9-18 12-43 30-75 52-33 23-52 36-59 41-12 8-23 19-33 33-11 14-16 27-16 39 0 15 4 27 12 37 8 10 19 15 34 15l420 0c13 0 23-5 32-14 9-9 14-19 14-32z"/>
<glyph glyph-name="app-gallery" unicode="&#98;" d="M175 235l13 0-5 13c0 2-1 4-2 6 0-2-1-4-1-6z m16-6l-19 0-4-12-8 0 18 45 7 0 18-45-8 0z m36-4c1 2 2 5 2 9 0 4-1 7-2 9-1 1-3 2-5 2-2 0-3 0-4-1-1-1-3-2-4-3l0-18c1 0 2 0 3-1 1 0 2 0 3 0 3 0 5 1 7 3z m-20 17c0 3-1 6-1 9l8 0c0-2 0-3 0-5 3 4 6 5 10 5 3 0 5 0 7-2 1-1 3-2 4-5 1-2 2-5 2-9 0-4-1-7-2-10-1-3-3-5-6-7-2-1-5-2-8-2-2 0-5 1-7 1l0-13-7-1z m55-17c1 2 2 5 2 9 0 4-1 7-2 9-1 1-3 2-5 2-2 0-3 0-4-1-1-1-3-2-4-3l0-18c1 0 2 0 3-1 1 0 2 0 3 0 3 0 5 1 7 3z m-20 17c0 3-1 6-1 9l8 0c0-2 0-3 0-5 3 4 6 5 10 5 3 0 5 0 7-2 1-1 3-2 4-5 1-2 2-5 2-9 0-4-1-7-2-10-1-3-3-5-6-7-2-1-5-2-8-2-2 0-5 1-7 1l0-13-7-1z m44-23c-3 2-6 5-8 8-1 3-2 7-2 12 0 5 1 9 3 13 2 4 5 6 8 8 4 2 8 3 12 3 3 0 5-1 7-1 3-1 5-2 7-3l-2-5c-4 1-8 2-12 2-3 0-5 0-8-2-2-1-4-3-5-5-2-3-2-6-2-10 0-3 0-6 1-8 1-3 3-5 5-6 2-2 5-2 8-2 2 0 3 0 5 0 1 0 3 1 4 1l0 9-11 0 0 6 18 0 0-19c-2-1-5-2-8-3-3 0-5-1-8-1-5 0-9 1-12 3z m51 4c2 1 3 2 4 3l0 6c-2 1-4 1-5 1-3 0-6-1-7-2-1-1-2-2-2-4 0-2 1-3 2-4 1-1 2-1 3-1 2 0 3 0 5 1z m5-6c-1 1-1 3-1 4-1-1-3-2-5-3-1-1-4-2-6-2-2 0-4 1-5 1-2 1-3 2-4 4-1 1-1 3-1 5 0 4 1 6 3 8 2 2 6 3 12 3 2 0 4 0 6 0l0 0c0 3-1 5-2 7-1 1-3 1-5 1-2 0-4 0-6 0-2-1-3-1-5-2l-1 6c2 0 3 1 6 1 2 1 4 1 7 1 3 0 5 0 7-1 2-1 4-3 5-5 1-2 2-5 2-8l0-14c0-1 0-3 0-6z m12 8l0 40 8 0 0-39c0-1 0-2 1-3 0 0 1-1 2-1 1 0 1 1 2 1l1-6c-1 0-2 0-3 0-1-1-2-1-3-1-5 0-8 3-8 9z m20 0l0 40 7 0 0-39c0-1 0-2 1-3 0 0 1-1 2-1 1 0 1 1 2 1l1-6c-1 0-1 0-2 0-2-1-3-1-3-1-6 0-8 3-8 9z m37 13c0 2-1 4-2 6-1 1-3 2-5 2-2 0-3-1-5-2-1-2-2-4-2-6z m8-5l-22 0c0-7 3-11 10-11 1 0 3 0 5 1 1 0 3 1 4 1l2-5c-4-2-8-3-13-3-3 0-6 1-9 2-2 2-4 4-5 6-1 3-2 6-2 9 0 4 1 7 2 10 1 3 3 5 5 6 3 1 5 2 8 2 4 0 6-1 8-2 2-2 4-4 5-6 1-2 2-5 2-8z m5 9c0 2 0 5 0 9l7 0c0-1 1-3 1-4 0-1 0-2 0-3 1 1 2 3 3 4 0 1 1 2 3 2 1 1 2 1 4 1 1 0 2 0 3 0l-1-7c-1 0-2 0-3 0-2 0-3 0-5-1-1-1-2-2-4-4l0-22-8 0z m25-39c-1 0-2 1-3 1l1 6c1-1 2-1 2-1 1 0 2 0 3 0 3 0 6 2 7 6l1 2-13 34 9 0 6-19c1-4 2-6 2-8 0 3 1 5 2 7l6 20 8 0-12-34c-2-4-3-6-4-8-1-2-3-4-5-5-2-1-4-1-7-1-1 0-2 0-3 0z m-289 102l14 0-1-3-9 0 0-7 9 0 0-3-9 0 0-7 10 0 0-3-14 0z m23-11l-7 11 5 0 4-8 6 8 4 0-7-11 8-12-5 0-6 9-5-9-5 0z m26 1c0 0 1 1 1 3 0 1-1 2-1 3-1 1-3 1-4 1l-2 0 0-8c1-1 1-1 2-1 2 0 3 1 4 2z m-10 10l6 0c3 0 5-1 7-2 1-1 2-3 2-5 0-2 0-3-1-4-1-1-2-2-3-3-1 0-3-1-4-1-1 0-2 0-3 1l0-9-4 0z m19 0l4 0 0-20 10 0-1-3-13 0z m30-19c1 0 2 1 3 3 0 1 0 3 0 4 0 2 0 3 0 5-1 1-2 2-3 3-1 1-2 1-4 1-2 0-3 0-4-1-1-1-2-2-3-3 0-2 0-3 0-5 0-1 0-3 0-4 1-2 2-3 3-3 1-1 2-1 4-1 2 0 3 0 4 1z m-10-3c-2 1-3 2-4 4-1 2-2 4-2 6 0 2 1 5 2 6 1 2 2 4 4 5 2 1 4 1 6 1 3 0 5 0 6-1 2-1 3-3 4-4 1-2 2-4 2-6 0-3-1-5-2-7-1-2-2-3-4-4-2-1-4-2-6-2-3 0-5 1-6 2z m28 11c1 0 2 0 3 0 1 1 1 1 2 2 0 1 0 2 0 2 0 2 0 2-1 3-1 1-2 1-3 1l-3 0 0-8z m-6 11l7 0c3 0 5-1 6-2 2-1 2-2 2-4 0-1 0-3 0-3-1-1-1-2-2-3-1 0-2-1-2-1l7-10-5 0-6 9-3 0 0-9-4 0z m21 0l14 0-1-3-9 0 0-7 9 0 0-3-9 0 0-7 10 0-1-3-13 0z m28 0l4 0 0-23-4 0z m15-3l-7 0 0 3 18 0 0-3-7 0 0-20-4 0z m39-16c1 0 2 1 3 3 0 1 0 3 0 4 0 2 0 3 0 5-1 1-2 2-3 3-1 1-2 1-4 1-1 0-3 0-4-1-1-1-2-2-3-3 0-2 0-3 0-5 0-1 0-3 0-4 1-2 2-3 3-3 1-1 2-1 4-1 2 0 3 0 4 1z m-10-3c-2 1-3 2-4 4-1 2-2 4-2 6 0 2 1 5 2 6 1 2 2 4 4 5 2 1 4 1 6 1 3 0 5 0 6-1 2-1 3-3 4-4 1-2 2-4 2-6 0-3-1-5-2-7-1-2-2-3-4-4-2-1-4-2-6-2-3 0-5 1-6 2z m22 22l5 0 11-18c0 2 0 3 0 5l0 13 4 0 0-23-5 0-11 18c0-2 0-4 0-6l0-12-4 0z m-299-57l4 0-2 5z m28 57l-43 0c-20 0-27-8-27-28l0-42c0-20 7-28 27-28l43 0c20 0 27 8 27 28l0 42c0 20-7 28-27 28z m-29-59l-1-3-3 0 6 13 2 0 6-13-3 0-1 3z m43-3l2 0 0 13-2 0z m-10 6l4 0 0 2-4 0 0 3 6 0 0 2-9 0 0-13 10 0 0 3-7 0z m-11-2l-2 9-3 0-2-9-3 9-3 0 4-13 3 0 2 9 3-9 2 0 5 13-3 0z m-29 2c0-2-2-3-3-3-2 0-3 1-3 3l0 7-3 0 0-7c0-4 2-6 6-6 3 0 5 2 5 6l0 7-2 0z m-15 7l3 0 0-13-3 0 0 5-6 0 0-5-2 0 0 13 2 0 0-5 6 0z m13 32c0-8 7-16 16-16 9 0 17 8 17 16l-3 0c0-7-6-13-14-13-7 0-14 6-14 13z"/>
<glyph glyph-name="app-store" unicode="&#99;" d="M348 259l0-9-6 0 0-7 6 0 0-22c0-7 3-10 12-10 1 0 3 0 4 0l0 7c-1 0-2 0-3 0-4 0-6 1-6 5l0 20 9 0 0 7-9 0 0 9z m37-49c12 0 19 8 19 21 0 12-7 20-19 20-11 0-18-8-18-20 0-13 7-21 18-21z m0 7c-6 0-10 5-10 14 0 8 4 13 10 13 7 0 11-5 11-13 0-9-4-14-11-14z m24-6l8 0 0 23c0 5 4 9 10 9 1 0 4 0 4 0l0 7c-1 0-2 0-3 0-5 0-10-2-11-6l0 0 0 6-8 0z m41 33c6 0 9-4 10-10l-20 0c1 6 4 10 10 10z m10-22c-2-3-5-5-10-5-6 0-10 4-10 11l0 0 27 0 0 3c0 12-6 20-17 20-11 0-18-8-18-21 0-12 7-20 18-20 9 0 15 5 17 12z m-162 3c0-9 8-15 20-15 13 0 21 6 21 16 0 8-5 13-16 15l-6 2c-7 1-9 4-9 7 0 5 4 8 11 8 6 0 10-3 11-8l8 0c-1 9-9 15-19 15-12 0-20-6-20-15 0-8 5-13 14-15l7-2c7-1 10-4 10-8 0-4-5-8-11-8-7 0-12 3-13 8z m-79 25c-5 0-10-2-12-7l-1 0 0 7-7 0 0-52 8 0 0 19 0 0c2-4 7-6 12-6 10 0 16 7 16 20 0 12-6 19-16 19z m-2-33c-7 0-11 5-11 14 0 8 4 13 11 13 6 0 10-5 10-13 0-9-4-14-10-14z m45 33c-6 0-10-2-12-7l-1 0 0 7-7 0 0-52 7 0 0 19 1 0c2-4 6-6 12-6 9 0 16 7 16 20 0 12-7 19-16 19z m-2-33c-7 0-11 5-11 14 0 8 4 13 11 13 6 0 10-5 10-13 0-9-4-14-10-14z m-75-6l9 0-19 53-9 0-19-53 8 0 5 14 21 0z m-15 44l1 0 7-23-16 0z m-18 49l0-25 9 0c8 0 12 4 12 12 0 9-4 13-12 13z m4-3l5 0c5 0 8-4 8-10 0-5-3-9-8-9l-5 0z m31-23c5 0 9 4 9 10 0 6-4 10-9 10-6 0-9-4-9-10 0-6 3-10 9-10z m0 4c-3 0-5 2-5 6 0 4 2 7 5 7 3 0 5-3 5-7 0-4-2-6-5-6z m38 16l-3 0-4-15 0 0-4 15-4 0-4-15 0 0-4 15-3 0 5-19 4 0 4 14 0 0 4-14 4 0z m5-19l4 0 0 11c0 3 1 5 4 5 3 0 4-2 4-5l0-11 4 0 0 12c0 5-2 7-7 7-2 0-4-1-5-3l-1 0 0 3-3 0z m22 0l4 0 0 26-4 0z m18-1c6 0 9 4 9 10 0 6-3 10-9 10-5 0-9-4-9-10 0-6 4-10 9-10z m0 4c-3 0-5 2-5 6 0 4 2 7 5 7 4 0 5-3 5-7 0-4-1-6-5-6z m21-1c-2 0-4 2-4 3 0 2 1 3 4 3l5 0 0-1c0-3-2-5-5-5z m-1-3c2 0 4 1 5 3l1 0 0-2 3 0 0 13c0 4-2 6-7 6-4 0-8-2-8-5l4 0c0 1 2 2 4 2 2 0 4-1 4-3l0-2-6 0c-4 0-7-2-7-6 0-3 3-6 7-6z m22 0c3 0 5 2 6 4l1 0 0-3 3 0 0 26-3 0 0-10-1 0c-1 2-3 3-6 3-4 0-8-4-8-10 0-6 3-10 8-10z m1 17c4 0 6-3 6-7 0-4-2-6-6-6-3 0-5 2-5 6 0 4 2 7 5 7z m34-17c6 0 9 4 9 10 0 6-3 10-9 10-6 0-9-4-9-10 0-6 3-10 9-10z m0 4c-3 0-5 2-5 6 0 4 2 7 5 7 3 0 5-3 5-7 0-4-2-6-5-6z m14-3l4 0 0 11c0 3 2 5 5 5 2 0 4-2 4-5l0-11 4 0 0 12c0 5-3 7-7 7-3 0-5-1-6-3l0 0 0 3-4 0z m34 24l0-5-3 0 0-3 3 0 0-11c0-4 2-5 6-5 1 0 1 0 2 0l0 3c0 0-1 0-1 0-2 0-3 1-3 3l0 10 4 0 0 3-4 0 0 5z m13-24l4 0 0 11c0 3 2 5 5 5 3 0 4-2 4-5l0-11 4 0 0 12c0 5-3 7-7 7-3 0-5-1-6-3l0 0 0 10-4 0z m31 16c2 0 4-2 4-5l-9 0c0 3 2 5 5 5z m4-11c0-2-2-3-4-3-3 0-5 3-5 6l0 0 13 0 0 2c0 6-3 9-8 9-6 0-9-4-9-10 0-6 3-10 9-10 4 0 7 2 8 6z m-337-29c0 7 4 14 10 17-4 6-11 9-17 10-7 0-14-5-18-5-4 0-9 5-15 4-8 0-16-4-20-11-8-14-2-35 6-47 4-6 9-12 15-12 6 0 8 4 15 4 7 0 9-4 15-4 7 0 11 6 15 12 3 4 5 8 6 13-7 3-12 11-12 19z m-12 34c3 4 5 10 5 15-6 0-10-3-14-7-3-4-5-9-5-14 6 0 11 2 14 6z"/>
<glyph glyph-name="google-play" unicode="&#100;" d="M258 249c-9 0-16-6-16-16 0-9 7-16 16-16 9 0 17 7 17 16 0 10-8 16-17 16z m0-26c-4 0-9 4-9 10 0 6 5 10 9 10 5 0 10-4 10-10 0-6-5-10-10-10z m-35 26c-9 0-16-6-16-16 0-9 7-16 16-16 9 0 16 7 16 16 0 10-7 16-16 16z m0-26c-5 0-9 4-9 10 0 6 4 10 9 10 5 0 9-4 9-10 0-6-4-10-9-10z m-42 21l0-6 16 0c0-4-1-7-3-9-3-2-6-5-13-5-10 0-18 8-18 18 0 10 8 18 18 18 6 0 9-2 12-5l5 5c-4 4-9 7-17 7-14 0-25-11-25-25 0-14 11-25 25-25 8 0 13 3 18 7 4 5 5 11 5 16 0 2 0 3 0 4l-23 0z m172-5c-1 4-6 10-14 10-8 0-15-6-15-16 0-9 7-16 16-16 7 0 12 5 13 7l-5 4c-2-3-4-5-8-5-4 0-6 2-8 5l22 9z m-22-5c0 6 5 9 8 9 3 0 6-1 6-3z m-18-16l7 0 0 47-7 0z m-11 28l0 0c-2 2-5 3-9 3-8 0-15-7-15-16 0-9 7-16 15-16 4 0 7 2 9 4l0 0 0-3c0-6-4-9-9-9-4 0-7 3-8 6l-6-3c2-4 6-9 14-9 8 0 15 4 15 16l0 29-6 0 0-2z m-8-23c-5 0-9 5-9 10 0 6 4 10 9 10 4 0 8-4 8-10 0-5-4-10-8-10z m92 42l-17 0 0-47 7 0 0 18 10 0c8 0 16 6 16 15 0 9-8 14-16 14z m0-22l-10 0 0 16 10 0c6 0 9-4 9-8 0-4-3-8-9-8z m44 6c-5 0-10-2-13-7l7-2c1 2 4 3 6 3 4 0 8-2 8-6l0-1c-2 1-4 2-8 2-7 0-13-3-13-10 0-7 5-11 11-11 5 0 8 2 9 5l1 0 0-4 6 0 0 18c0 9-6 13-14 13z m-1-26c-2 0-5 2-5 4 0 4 4 6 7 6 3 0 5-1 7-2-1-4-5-8-9-8z m40 25l-8-20 0 0-8 20-8 0 13-28-8-16 8 0 19 44z m-63-30l7 0 0 47-7 0z m-226 75c0-3-1-6-3-8-2-2-5-3-8-3-4 0-6 1-9 3-2 3-3 6-3 9 0 3 1 6 3 8 3 3 5 4 9 4 1 0 3-1 4-1 2-1 3-2 4-3l-2-2c-2 2-4 3-6 3-3 0-5-1-7-3-1-1-2-3-2-6 0-3 1-5 2-7 2-1 4-2 7-2 2 0 4 1 6 2 1 1 2 3 2 5l-8 0 0 3 11 0c0-1 0-1 0-2z m17 10l-10 0 0-8 9 0 0-2-9 0 0-8 10 0 0-2-13 0 0 22 13 0z m13-20l-3 0 0 20-7 0 0 2 16 0 0-2-6 0z m17 0l0 22 3 0 0-22z m16 0l-3 0 0 20-6 0 0 2 16 0 0-2-7 0z m36 2c-2-2-5-3-8-3-3 0-6 1-9 3-2 3-3 6-3 9 0 3 1 6 3 8 3 3 6 4 9 4 3 0 6-1 8-4 2-2 4-5 4-8 0-3-2-6-4-9z m-14 2c1-1 3-2 6-2 2 0 4 1 6 2 2 2 3 4 3 7 0 3-1 5-3 6-2 2-4 3-6 3-3 0-5-1-6-3-2-1-3-3-3-6 0-3 1-5 3-7z m22-4l0 22 3 0 11-17 0 0 0 4 0 13 3 0 0-22-3 0-11 18-1 0 1-4 0-14z m-240 219c0-1 0-2 0-2-1-1-2-1-3-1 0 0-1 0-2 1 0 0-1 1-1 2 0 1 1 2 1 2 1 1 2 1 2 1 1 0 1 0 2 0 0 0 0-1 1-1l-1 0c0 0-1 0-2 0 0 0-1 0-1 0-1-1-1-1-1-2 0-1 0-1 1-2 0 0 1 0 1 0 1 0 2 0 2 0 0 1 1 1 1 1l-3 0 0 1 3 0c0 0 0 0 0 0z m5 2l-3 0 0-2 3 0 0 0-3 0 0-2 3 0 0-1-3 0 0 6 3 0z m3-5l0 0 0 5-2 0 0 1 4 0 0-1-2 0z m5 0l0 6 1 0 0-6z m4 0l-1 0 0 5-1 0 0 1 4 0 0-1-2 0z m10 1c-1-1-2-1-3-1 0 0-1 0-2 1 0 0-1 1-1 2 0 1 1 2 1 2 1 1 2 1 2 1 1 0 2 0 3-1 0 0 0-1 0-2 0-1 0-2 0-2z m-4 0c0 0 1 0 1 0 1 0 2 0 2 0 0 1 1 1 1 2 0 1-1 1-1 2 0 0-1 0-2 0 0 0-1 0-1 0-1-1-1-1-1-2 0-1 0-1 1-2z m6-1l0 6 1 0 2-5 0 0 0 1 0 4 1 0 0-6-1 0-3 5 0 0 0-1 0-4z m-37-197c-1-1-1-3-1-4l0-84c0-1 0-3 1-4l45 46z m2-94c2-1 4-1 6 0l54 31-14 14z m64 33l16 10c6 3 6 7 0 10l-16 10-15-15z m-4 32l-54 30c-2 2-4 2-6 1l46-45z"/>
<glyph glyph-name="twitter" unicode="&#101;" d="M403 487l78 0-172-196 201-266-158 0-123 162-142-162-79 0 183 210-193 252 162 0 112-148z m-28-416l44 0-282 372-47 0z"/>
<glyph glyph-name="ac-unit" unicode="&#102;" d="M235 131l-55-54c-4-4-9-6-15-6-6 0-11 3-15 7-4 4-6 9-6 15 0 5 2 10 6 15l85 84 0 43-43 0-85-85c-4-4-9-6-14-6-6 0-11 2-16 6-4 4-6 9-6 15 0 6 2 11 6 15l54 55-68 0c-6 0-11 2-14 6-4 4-6 9-6 15 0 6 2 11 6 15 4 4 9 6 15 6l67 0-54 55c-4 4-6 9-6 14 0 6 3 11 7 16 4 4 9 5 15 5 5 0 10-1 15-5l84-85 43 0 0 43-85 84c-4 4-6 9-6 15 0 6 2 11 6 15 4 4 9 6 15 6 6 0 11-2 15-6l55-53 0 67c0 6 2 11 6 15 4 4 9 6 15 6 6 0 11-2 15-6 4-4 6-9 6-15l0-67 55 53c4 4 9 6 14 6 6 0 11-2 16-6 4-4 5-9 5-15 0-6-1-11-5-15l-85-84 0-43 43 0 84 85c4 4 9 5 15 5 6 0 11-2 15-6 4-4 6-9 6-15 0-5-2-10-6-14l-53-55 67 0c6 0 11-2 15-6 4-4 6-9 6-15 0-6-2-11-6-15-4-4-9-6-15-6l-67 0 53-55c4-4 6-9 6-15 0-6-2-11-6-15-4-4-9-6-15-6-6 0-11 2-15 6l-84 85-43 0 0-43 85-85c4-4 5-9 5-14 0-6-2-11-6-16-4-4-9-6-15-6-5 0-10 2-14 6l-55 54 0-68c0-6-2-11-6-14-4-4-9-6-15-6-6 0-11 2-15 6-4 4-6 9-6 15z"/>
<glyph glyph-name="access-time" unicode="&#103;" d="M277 265l0 76c0 6-2 11-6 16-4 4-9 6-15 6-6 0-11-2-15-6-4-5-6-10-6-16l0-84c0-3 0-6 1-9 1-2 3-5 5-7l70-70c4-4 9-6 15-6 6 0 11 2 15 6 4 4 6 9 6 15 0 6-2 11-6 15z m-21-222c-30 0-57 5-83 16-26 12-49 27-68 46-19 19-34 42-46 68-11 26-16 53-16 83 0 30 5 57 16 83 12 26 27 49 46 68 19 19 42 34 68 46 26 11 53 16 83 16 30 0 57-5 83-16 26-12 49-27 68-46 19-19 34-42 46-68 11-26 16-53 16-83 0-30-5-57-16-83-12-26-27-49-46-68-19-19-42-34-68-46-26-11-53-16-83-16z"/>
<glyph glyph-name="accessibility-new" unicode="&#104;" d="M256 384c-12 0-22 4-30 13-8 8-13 18-13 30 0 11 5 21 13 30 8 8 18 12 30 12 12 0 22-4 30-12 8-9 13-19 13-30 0-12-5-22-13-30-8-9-18-13-30-13z m-64-320l0 256c-17 1-35 3-53 6-18 2-35 6-52 9-6 2-11 5-15 11-3 5-4 11-3 17 2 6 6 10 12 13 5 3 11 4 18 2 25-5 50-9 77-12 27-2 54-3 80-3 26 0 53 1 80 3 27 3 52 7 77 12 7 2 13 1 18-2 6-3 10-7 12-13 1-6 0-12-3-17-4-6-9-9-15-11-17-3-34-7-52-9-18-3-36-5-53-6l0-256c0-6-2-11-6-15-4-4-9-6-15-6-6 0-11 2-16 6-4 4-6 9-6 15l0 107-42 0 0-107c0-6-2-11-6-15-5-4-10-6-16-6-6 0-11 2-15 6-4 4-6 9-6 15z"/>
<glyph glyph-name="account-circle" unicode="&#105;" d="M125 147c18 14 38 25 61 33 22 8 45 12 70 12 25 0 48-4 70-12 23-8 43-19 61-33 13 15 22 31 29 50 7 18 11 38 11 59 0 47-17 88-50 121-33 33-74 50-121 50-47 0-88-17-121-50-33-33-50-74-50-121 0-21 4-41 11-59 7-19 16-35 29-50z m131 88c-21 0-39 7-53 21-14 15-22 32-22 53 0 21 8 39 22 53 14 15 32 22 53 22 21 0 39-7 53-22 14-14 22-32 22-53 0-21-8-38-22-53-14-14-32-21-53-21z m0-192c-30 0-57 5-83 16-26 12-49 27-68 46-19 19-34 42-46 68-11 26-16 53-16 83 0 30 5 57 16 83 12 26 27 49 46 68 19 19 42 34 68 46 26 11 53 16 83 16 30 0 57-5 83-16 26-12 49-27 68-46 19-19 34-42 46-68 11-26 16-53 16-83 0-30-5-57-16-83-12-26-27-49-46-68-19-19-42-34-68-46-26-11-53-16-83-16z"/>
<glyph glyph-name="add" unicode="&#106;" d="M235 235l-107 0c-6 0-11 2-15 6-4 4-6 9-6 15 0 6 2 11 6 15 4 4 9 6 15 6l107 0 0 107c0 6 2 11 6 15 4 4 9 6 15 6 6 0 11-2 15-6 4-4 6-9 6-15l0-107 107 0c6 0 11-2 15-6 4-4 6-9 6-15 0-6-2-11-6-15-4-4-9-6-15-6l-107 0 0-107c0-6-2-11-6-15-4-4-9-6-15-6-6 0-11 2-15 6-4 4-6 9-6 15z"/>
<glyph glyph-name="add-alert" unicode="&#107;" d="M107 107c-6 0-11 2-16 6-4 4-6 9-6 15 0 6 2 11 6 15 5 4 10 6 16 6l21 0 0 150c0 29 9 55 27 78 17 23 41 38 69 45l0 15c0 9 3 17 9 23 7 6 14 9 23 9 9 0 16-3 23-9 6-6 9-14 9-23l0-15c28-7 52-22 69-45 18-23 27-49 27-78l0-150 21 0c6 0 11-2 16-6 4-4 6-9 6-15 0-6-2-11-6-15-5-4-10-6-16-6z m149-64c-12 0-22 4-30 12-8 9-13 19-13 30l86 0c0-11-5-21-13-30-8-8-18-12-30-12z m-21 192l0-22c0-6 2-11 6-15 4-4 9-6 15-6 6 0 11 2 15 6 4 4 6 9 6 15l0 22 22 0c6 0 11 2 15 6 4 4 6 9 6 15 0 6-2 11-6 15-4 4-9 6-15 6l-22 0 0 22c0 6-2 11-6 15-4 4-9 6-15 6-6 0-11-2-15-6-4-4-6-9-6-15l0-22-22 0c-6 0-11-2-15-6-4-4-6-9-6-15 0-6 2-11 6-15 4-4 9-6 15-6z"/>
<glyph glyph-name="add-chart" unicode="&#108;" d="M171 149c6 0 11 2 15 6 4 5 6 10 6 16l0 106c0 6-2 11-6 16-4 4-9 6-15 6-6 0-11-2-16-6-4-5-6-10-6-16l0-106c0-6 2-11 6-16 5-4 10-6 16-6z m85 0c6 0 11 2 15 6 4 5 6 10 6 16l0 170c0 6-2 11-6 16-4 4-9 6-15 6-6 0-11-2-15-6-4-5-6-10-6-16l0-170c0-6 2-11 6-16 4-4 9-6 15-6z m85 0c6 0 11 2 16 6 4 5 6 10 6 16l0 42c0 6-2 11-6 16-5 4-10 6-16 6-6 0-11-2-15-6-4-5-6-10-6-16l0-42c0-6 2-11 6-16 4-4 9-6 15-6z m43 171c-6 0-11 2-15 6-4 4-6 9-6 15l0 22-22 0c-6 0-11 2-15 6-4 4-6 9-6 15 0 6 2 11 6 15 4 4 9 6 15 6l22 0 0 22c0 6 2 11 6 15 4 4 9 6 15 6 6 0 11-2 15-6 4-4 6-9 6-15l0-22 22 0c6 0 11-2 15-6 4-4 6-9 6-15 0-6-2-11-6-15-4-4-9-6-15-6l-22 0 0-22c0-6-2-11-6-15-4-4-9-6-15-6z m-277-256c-12 0-22 4-30 13-9 8-13 18-13 30l0 298c0 12 4 22 13 30 8 9 18 13 30 13l170 0c6 0 11-2 16-6 4-4 6-9 6-15l0-86c0-11 4-21 12-30 9-8 19-12 30-12l86 0c6 0 11-2 15-6 4-5 6-10 6-16l0-170c0-12-4-22-13-30-8-9-18-13-30-13z"/>
<glyph glyph-name="add-link" unicode="&#109;" d="M363 149l-44 0c-6 0-11 2-14 6-4 5-6 10-6 16 0 6 2 11 6 15 4 4 9 6 15 6l43 0 0 43c0 6 2 11 6 15 4 4 9 6 15 6 6 0 11-2 15-6 4-4 6-9 6-15l0-43 43 0c6 0 11-2 15-6 4-4 6-9 6-15 0-6-2-11-6-16-4-4-9-6-15-6l-43 0 0-42c0-6-2-11-6-16-4-4-9-6-15-6-6 0-11 2-15 6-4 5-6 10-6 16z m-150 0l-64 0c-29 0-54 11-75 32-21 20-31 45-31 75 0 30 10 55 31 75 21 21 46 32 75 32l64 0c6 0 11-2 16-6 4-5 6-10 6-16 0-6-2-11-6-15-5-4-10-6-16-6l-64 0c-17 0-33-6-45-19-12-12-19-27-19-45 0-18 7-33 19-45 12-13 28-19 45-19l64 0c6 0 11-2 16-6 4-4 6-9 6-15 0-6-2-11-6-16-5-4-10-6-16-6z m-21 86c-6 0-11 2-15 6-4 4-6 9-6 15 0 6 2 11 6 15 4 4 9 6 15 6l128 0c6 0 11-2 15-6 4-4 6-9 6-15 0-6-2-11-6-15-4-4-9-6-15-6z m277 21l-42 0c0 18-7 33-19 45-12 13-28 19-45 19l-65 0c-6 0-11 2-15 6-4 4-6 9-6 15 0 6 2 11 6 16 5 4 10 6 16 6l64 0c29 0 54-11 75-32 21-20 31-45 31-75z"/>
<glyph glyph-name="add-reaction" unicode="&#110;" d="M256 43c-30 0-57 5-83 16-26 12-49 27-68 46-19 19-34 42-46 68-11 26-16 53-16 83 0 30 5 57 16 83 12 26 27 49 46 68 19 19 42 34 68 46 26 11 53 16 83 16 15 0 30-1 44-4 14-3 28-8 41-13l0-48c0-12 4-21 12-29 8-8 18-12 29-12l2 0 0-13c0-8 3-15 9-21 6-6 13-9 21-9l46 0c3-10 5-21 7-31 2-11 2-22 2-33 0-30-5-57-16-83-12-26-27-49-46-68-19-19-42-34-68-46-26-11-53-16-83-16z m0 96c21 0 40 5 57 15 17 10 32 23 42 40 2 4 2 9 0 13-3 4-7 6-12 6l-174 0c-5 0-9-2-12-6-2-4-2-9 0-13 10-17 25-30 42-40 18-10 37-15 57-15z m-75 138c9 0 17 3 23 10 6 6 9 13 9 22 0 9-3 17-9 23-6 6-14 9-23 9-9 0-16-3-22-9-7-6-10-14-10-23 0-9 3-16 10-22 6-7 13-10 22-10z m150 0c9 0 16 3 22 10 7 6 10 13 10 22 0 9-3 17-10 23-6 6-13 9-22 9-9 0-17-3-23-9-6-6-9-14-9-23 0-9 3-16 9-22 6-7 14-10 23-10z m96 128l-22 0c-6 0-11 2-15 6-4 5-6 10-6 16 0 6 2 11 6 15 4 4 9 6 15 6l22 0 0 21c0 6 2 11 6 16 4 4 9 6 15 6 6 0 11-2 15-6 4-5 6-10 6-16l0-21 22 0c6 0 11-2 15-6 4-4 6-9 6-15 0-6-2-11-6-16-4-4-9-6-15-6l-22 0 0-21c0-6-2-11-6-15-4-4-9-6-15-6-6 0-11 2-15 6-4 4-6 9-6 15z"/>
<glyph glyph-name="add-shopping-cart" unicode="&#111;" d="M235 384l-43 0c-6 0-11 2-15 6-4 4-6 9-6 15 0 6 2 11 6 16 4 4 9 6 15 6l43 0 0 42c0 6 2 11 6 16 4 4 9 6 15 6 6 0 11-2 15-6 4-5 6-10 6-16l0-42 43 0c6 0 11-2 15-6 4-5 6-10 6-16 0-6-2-11-6-15-4-4-9-6-15-6l-43 0 0-43c0-6-2-11-6-15-4-4-9-6-15-6-6 0-11 2-15 6-4 4-6 9-6 15z m-86-341c-11 0-21 4-30 12-8 9-12 19-12 30 0 12 4 22 12 30 9 9 19 13 30 13 12 0 22-4 30-13 9-8 13-18 13-30 0-11-4-21-13-30-8-8-18-12-30-12z m214 0c-12 0-22 4-30 12-9 9-13 19-13 30 0 12 4 22 13 30 8 9 18 13 30 13 11 0 21-4 30-13 8-8 12-18 12-30 0-11-4-21-12-30-9-8-19-12-30-12z m-299 384l-21 0c-6 0-11 2-16 6-4 4-6 9-6 15 0 6 2 11 6 15 5 4 10 6 16 6l35 0c4 0 8-1 11-3 4-2 6-5 8-9l85-180 149 0 78 139c1 4 4 6 7 8 3 2 7 3 11 3 8 0 14-4 18-11 4-7 4-14 0-21l-76-138c-4-7-9-13-16-16-6-4-13-6-21-6l-159 0-24-43 235 0c6 0 11-2 15-6 4-4 6-9 6-15 0-6-2-11-6-16-4-4-9-6-15-6l-235 0c-16 0-28 7-36 21-9 14-9 28-1 42l29 53z"/>
<glyph glyph-name="ads-click" unicode="&#112;" d="M250 128c-35 2-63 15-87 39-23 25-35 55-35 89 0 36 12 66 37 91 25 25 55 37 91 37 34 0 64-12 89-35 24-24 37-52 39-87l-45 14c-4 19-14 35-30 47-15 12-33 18-53 18-23 0-44-8-60-25-17-16-25-37-25-60 0-20 6-38 18-53 12-16 28-26 47-30z m25-84c-3-1-6-1-9-1l-10 0c-30 0-57 5-83 16-26 12-49 27-68 46-19 19-34 42-46 68-11 26-16 53-16 83 0 30 5 57 16 83 12 26 27 49 46 68 19 19 42 34 68 46 26 11 53 16 83 16 30 0 57-5 83-16 26-12 49-27 68-46 19-19 34-42 46-68 11-26 16-53 16-83l0-10c0-3 0-6-1-9l-41 13 0 6c0 48-17 88-50 121-33 33-73 50-121 50-48 0-88-17-121-50-33-33-50-73-50-121 0-48 17-88 50-121 33-33 73-50 121-50l6 0z m142 9l-70 70-16-48c-2-5-5-8-10-8-5 1-9 3-11 8l-48 162c-2 4-1 7 3 10 3 4 6 5 10 3l162-48c5-2 7-6 8-11 0-5-3-8-8-10l-48-16 70-70c6-6 9-13 9-21 0-8-3-15-9-21-6-6-13-9-21-9-8 0-15 3-21 9z"/>
<glyph glyph-name="airline-stops" unicode="&#113;" d="M235 149c-5 45-24 84-55 115-31 31-69 49-114 54-6 1-12 4-16 8-5 4-7 9-7 15 0 6 2 11 6 16 4 4 9 5 16 5 41-4 79-18 113-41 34-24 60-55 78-93 14 29 31 55 53 77 22 22 47 41 74 58l-63 0c-6 0-11 2-15 6-4 4-6 9-6 15 0 6 2 11 6 15 4 4 9 6 15 6l107 0c6 0 11-2 15-6 4-4 6-9 6-15l0-107c0-6-2-11-6-15-4-4-9-6-15-6-6 0-11 2-16 6-4 4-6 9-6 15l0 49c-33-20-61-45-85-75-24-30-38-64-43-102l22 0c6 0 11-2 15-6 4-4 6-9 6-15 0-6-2-11-6-15-4-4-9-6-15-6l-86 0c-6 0-11 2-15 6-4 4-6 9-6 15 0 6 2 11 6 15 4 4 9 6 15 6z"/>
<glyph glyph-name="airplanemode-active" unicode="&#114;" d="M181 43l0 32 43 32 0 117-181-53 0 42 181 107 0 117c0 9 3 17 9 23 7 6 14 9 23 9 9 0 16-3 23-9 6-6 9-14 9-23l0-117 181-107 0-42-181 53 0-117 43-32 0-32-75 21z"/>
<glyph glyph-name="all-out" unicode="&#115;" d="M149 64l-42 0c-12 0-22 4-30 13-9 8-13 18-13 30l0 42c0 6 2 11 6 16 4 4 9 6 15 6 6 0 11-2 16-6 4-5 6-10 6-16l0-42 42 0c6 0 11-2 16-6 4-5 6-10 6-16 0-6-2-11-6-15-5-4-10-6-16-6z m256 0l-42 0c-6 0-11 2-16 6-4 4-6 9-6 15 0 6 2 11 6 16 5 4 10 6 16 6l42 0 0 42c0 6 2 11 6 16 5 4 10 6 16 6 6 0 11-2 15-6 4-5 6-10 6-16l0-42c0-12-4-22-13-30-8-9-18-13-30-13z m-149 43c-41 0-76 14-106 43-29 30-43 65-43 106 0 41 14 76 43 106 30 29 65 43 106 43 41 0 76-14 106-43 29-30 43-65 43-106 0-41-14-76-43-106-30-29-65-43-106-43z m-192 298c0 12 4 22 13 30 8 9 18 13 30 13l42 0c6 0 11-2 16-6 4-4 6-9 6-15 0-6-2-11-6-16-5-4-10-6-16-6l-42 0 0-42c0-6-2-11-6-16-5-4-10-6-16-6-6 0-11 2-15 6-4 5-6 10-6 16z m363-64c-6 0-11 2-16 6-4 5-6 10-6 16l0 42-42 0c-6 0-11 2-16 6-4 5-6 10-6 16 0 6 2 11 6 15 5 4 10 6 16 6l42 0c12 0 22-4 30-13 9-8 13-18 13-30l0-42c0-6-2-11-6-16-4-4-9-6-15-6z"/>
<glyph glyph-name="analytics" unicode="&#116;" d="M171 256c-6 0-11-2-16-6-4-4-6-9-6-15l0-64c0-6 2-11 6-16 5-4 10-6 16-6 6 0 11 2 15 6 4 5 6 10 6 16l0 64c0 6-2 11-6 15-4 4-9 6-15 6z m170 107c-6 0-11-2-15-6-4-5-6-10-6-16l0-170c0-6 2-11 6-16 4-4 9-6 15-6 6 0 11 2 16 6 4 5 6 10 6 16l0 170c0 6-2 11-6 16-5 4-10 6-16 6z m-85-150c-6 0-11-2-15-6-4-4-6-9-6-15l0-21c0-6 2-11 6-16 4-4 9-6 15-6 6 0 11 2 15 6 4 5 6 10 6 16l0 21c0 6-2 11-6 15-4 4-9 6-15 6z m-149-149c-12 0-22 4-30 13-9 8-13 18-13 30l0 298c0 12 4 22 13 30 8 9 18 13 30 13l298 0c12 0 22-4 30-13 9-8 13-18 13-30l0-298c0-12-4-22-13-30-8-9-18-13-30-13z m149 192c6 0 11 2 15 6 4 4 6 9 6 15 0 6-2 11-6 16-4 4-9 6-15 6-6 0-11-2-15-6-4-5-6-10-6-16 0-6 2-11 6-15 4-4 9-6 15-6z"/>
<glyph glyph-name="announcement" unicode="&#117;" d="M128 128l-49-49c-7-7-15-8-23-5-9 4-13 11-13 20l0 333c0 11 4 21 12 30 9 8 19 12 30 12l342 0c11 0 21-4 30-12 8-9 12-19 12-30l0-256c0-12-4-22-12-30-9-9-19-13-30-13z m128 64c6 0 11 2 15 6 4 4 6 9 6 15 0 6-2 11-6 16-4 4-9 6-15 6-6 0-11-2-15-6-4-5-6-10-6-16 0-6 2-11 6-15 4-4 9-6 15-6z m0 85c6 0 11 2 15 6 4 5 6 10 6 16l0 85c0 6-2 11-6 15-4 4-9 6-15 6-6 0-11-2-15-6-4-4-6-9-6-15l0-85c0-6 2-11 6-16 4-4 9-6 15-6z"/>
<glyph glyph-name="app-shortcut" unicode="&#118;" d="M149 21c-11 0-21 5-30 13-8 8-12 18-12 30l0 384c0 12 4 22 12 30 9 8 19 13 30 13l214 0c11 0 21-5 30-13 8-8 12-18 12-30l0-85-42 0 0 21-214 0 0-256 214 0 0 21 42 0 0-85c0-12-4-22-12-30-9-8-19-13-30-13z m217 214l-110 0 0-43c0-6-2-11-6-15-4-4-9-6-15-6-6 0-11 2-16 6-4 4-6 9-6 15l0 43c0 11 5 21 13 30 8 8 18 12 30 12l110 0-19 20c-4 3-6 8-6 14 0 6 2 11 7 15 4 4 9 6 15 6 6 0 11-2 15-6l55-55c4-4 6-9 6-15 0-6-2-11-6-15l-55-55c-4-4-9-6-15-7-6 0-11 2-15 7-4 4-6 8-6 14-1 6 1 11 5 15z"/>
<glyph glyph-name="area-chart" unicode="&#119;" d="M448 171l-166 129c-9 8-20 11-32 9-12-2-22-7-29-17l-46-63c-3-5-8-8-14-9-6-1-11 1-16 5l-81 63 0 32c0 9 4 15 12 19 8 4 15 3 22-2l51-38 81 112c7 10 17 16 29 18 12 2 23-1 32-9l72-57 42 0c12 0 22-5 30-13 9-8 13-18 13-30z m-384-86l0 150 72-58c10-8 20-11 32-9 12 2 22 8 29 18l46 63c4 5 8 8 14 9 6 1 12-1 17-5l174-136 0-32z"/>
<glyph glyph-name="article" unicode="&#120;" d="M107 64c-12 0-22 4-30 13-9 8-13 18-13 30l0 298c0 12 4 22 13 30 8 9 18 13 30 13l298 0c12 0 22-4 30-13 9-8 13-18 13-30l0-298c0-12-4-22-13-30-8-9-18-13-30-13z m64 85l106 0c6 0 11 2 16 6 4 5 6 10 6 16 0 6-2 11-6 15-5 4-10 6-16 6l-106 0c-6 0-11-2-16-6-4-4-6-9-6-15 0-6 2-11 6-16 5-4 10-6 16-6z m0 86l170 0c6 0 11 2 16 6 4 4 6 9 6 15 0 6-2 11-6 15-5 4-10 6-16 6l-170 0c-6 0-11-2-16-6-4-4-6-9-6-15 0-6 2-11 6-15 5-4 10-6 16-6z m0 85l170 0c6 0 11 2 16 6 4 4 6 9 6 15 0 6-2 11-6 16-5 4-10 6-16 6l-170 0c-6 0-11-2-16-6-4-5-6-10-6-16 0-6 2-11 6-15 5-4 10-6 16-6z"/>
<glyph glyph-name="assignment-ind" unicode="&#70;" d="M107 64c-12 0-22 4-30 13-9 8-13 18-13 30l0 298c0 12 4 22 13 30 8 9 18 13 30 13l89 0c5 13 13 23 24 31 10 8 22 12 36 12 14 0 26-4 36-12 11-8 19-18 24-31l89 0c12 0 22-4 30-13 9-8 13-18 13-30l0-298c0-12-4-22-13-30-8-9-18-13-30-13z m149 357c5 0 8 2 11 5 3 3 5 7 5 11 0 5-2 9-5 12-3 3-6 4-11 4-5 0-8-1-11-4-3-3-5-7-5-12 0-4 2-8 5-11 3-3 6-5 11-5z m0-186c21 0 38 7 53 22 14 14 22 32 22 52 0 21-8 39-22 53-15 15-32 22-53 22-21 0-38-7-53-22-14-14-22-32-22-53 0-20 8-38 22-52 15-15 32-22 53-22z m-149-128l298 0 0 24c-19 19-41 34-67 45-25 11-52 16-82 16-30 0-57-5-82-16-26-11-48-26-67-45z"/>
<glyph glyph-name="assistant-direction" unicode="&#72;" d="M256 21c-32 0-63 6-91 19-29 12-54 29-75 50-21 21-38 46-50 75-13 28-19 59-19 91 0 33 6 63 19 92 12 28 29 53 50 74 21 21 46 38 75 50 28 13 59 19 91 19 33 0 63-6 92-19 28-12 53-29 74-50 21-21 38-46 50-74 13-29 19-59 19-92 0-32-6-63-19-91-12-29-29-54-50-75-21-21-46-38-74-50-29-13-59-19-92-19z m-13 69c3-3 7-5 12-5 5 0 9 2 12 5l154 154c3 3 5 8 5 13 0 5-2 9-5 12l-154 154c-3 3-7 5-12 5-5 0-9-2-12-5l-154-154c-3-3-5-7-5-12 0-5 2-10 5-13z m-30 167l0-43c0-6-2-11-6-15-4-4-9-6-16-6-6 0-11 2-15 6-4 4-6 9-6 15l0 64c0 6 2 11 6 15 4 4 9 6 15 6l89 0-8 9c-4 4-6 9-6 15 0 5 2 10 7 15 3 4 8 5 14 5 7 0 11-1 15-5l45-45c4-4 7-9 7-15 0-6-3-11-7-15l-45-45c-4-4-8-6-15-6-6 0-11 2-15 7-4 4-6 8-6 14 0 6 2 11 6 15l8 9z"/>
<glyph glyph-name="assured-workload" unicode="&#73;" d="M107 171l0 106c0 6 2 11 6 16 4 4 9 6 15 6 6 0 11-2 15-6 4-5 6-10 6-16l0-106c0-6-2-11-6-16-4-4-9-6-15-6-6 0-11 2-15 6-4 5-6 10-6 16z m128 0l0 106c0 6 2 11 6 16 4 4 9 6 15 6 6 0 11-2 15-6 4-5 6-10 6-16l0-106c0-6-2-11-6-16-4-4-9-6-15-6-6 0-11 2-15 6-4 5-6 10-6 16z m213 170l-386 0c-5 0-10 2-14 6-3 4-5 8-5 14l0 11c0 4 1 8 3 10 2 3 4 6 7 7l184 92c6 3 12 4 19 4 7 0 13-1 19-4l183-91c4-2 6-5 8-8 2-4 3-7 3-11l0-8c0-6-2-11-6-16-4-4-9-6-15-6z m-141-277l-243 0c-6 0-11 2-15 6-4 4-6 9-6 15 0 6 2 11 6 16 4 4 9 6 15 6l236 0c0-8 1-15 2-22 1-7 3-14 5-21z m56 165l0 48c0 6 2 11 6 16 4 4 9 6 15 6 6 0 11-2 15-6 4-5 6-10 6-16l0-26z m-22-113l0 41c0 4 1 8 3 12 2 3 5 6 9 8l64 32c3 1 6 2 10 2 3 0 6-1 9-2l64-32c4-2 7-5 9-8 2-4 3-8 3-12l0-41c0-26-7-49-21-69-14-19-33-34-56-44-1 0-4-1-8-1-1 0-4 0-8 1-24 10-43 25-57 44-14 20-21 43-21 69z m70-7l-9 10c-4 3-7 5-12 4-4 0-8-1-11-5-3-3-5-7-5-11 0-4 2-8 5-11l17-17c5-4 10-6 15-6 6 0 11 2 15 6l48 47c3 4 5 7 5 12 0 4-2 8-5 11-3 3-7 5-11 4-4 0-8-1-11-4z"/>
<glyph glyph-name="attach-money" unicode="&#74;" d="M257 64c-7 0-12 2-16 6-4 4-6 9-6 15l0 25c-16 3-30 10-42 19-12 8-22 21-29 37-3 5-3 10-1 16 3 5 7 9 13 12 5 2 10 2 15-1 6-2 10-6 13-11 6-11 13-19 23-24 9-6 20-9 34-9 14 0 27 4 37 10 10 7 15 17 15 31 0 12-4 22-12 29-7 8-26 16-54 25-31 10-52 21-63 35-11 13-17 29-17 48 0 24 7 42 22 54 15 13 31 20 46 22l0 24c0 6 2 11 6 15 4 4 9 6 16 6 6 0 11-2 15-6 4-4 6-9 6-15l0-24c13-2 25-6 35-13 10-6 18-15 25-24 3-5 3-10 1-16-1-5-5-9-12-12-5-2-10-2-15 0-5 2-10 5-15 10-5 5-10 9-16 12-6 2-14 4-23 4-16 0-28-4-36-11-8-7-12-15-12-26 0-11 5-21 16-27 10-7 29-14 55-22 25-7 43-18 56-33 12-16 19-34 19-54 0-25-8-45-23-58-15-13-33-21-55-24l0-24c0-6-2-11-6-15-4-4-9-6-15-6z"/>
<glyph glyph-name="audiotrack" unicode="&#75;" d="M213 64c-23 0-43 8-60 25-17 17-25 37-25 60 0 24 8 44 25 61 17 16 37 25 60 25 9 0 16-1 23-3 7-2 14-5 20-9l0 204c0 6 2 11 6 15 4 4 9 6 15 6l86 0c6 0 11-2 15-6 4-4 6-9 6-15l0-43c0-6-2-11-6-15-4-4-9-6-15-6l-64 0 0-214c0-23-9-43-25-60-17-17-37-25-61-25z"/>
<glyph glyph-name="auto-awesome" unicode="&#76;" d="M377 377l-38 17c-2 1-3 2-4 4-1 2-2 3-2 5 0 2 1 4 2 6 1 1 2 3 4 4l38 17 17 37c1 2 2 4 4 5 2 1 3 2 5 2 2 0 4-1 6-2 1-1 3-3 4-5l17-37 37-17c2-1 4-3 5-4 1-2 2-4 2-6 0-2-1-3-2-5-1-2-3-3-5-4l-37-17-17-38c-1-2-3-3-4-4-2-1-4-2-6-2-2 0-3 1-5 2-2 1-3 2-4 4z m-238-174l-86 39c-3 1-5 3-7 6-1 2-2 5-2 8 0 3 1 6 2 8 2 3 4 5 7 6l86 39 39 86c1 3 3 5 6 7 2 1 5 2 8 2 3 0 6-1 8-2 3-2 5-4 6-7l39-86 86-39c3-1 5-3 7-6 1-2 2-5 2-8 0-3-1-6-2-8-2-3-4-5-7-6l-86-39-39-86c-1-3-3-5-6-7-2-1-5-2-8-2-3 0-6 1-8 2-3 2-5 4-6 7z m240-123l-38 17c-2 1-3 3-4 4-2 2-2 4-2 6 0 1 0 3 2 5 1 2 2 3 4 4l38 17 17 38c1 2 2 3 4 4 2 2 4 2 5 2 2 0 4 0 6-2 1-1 3-2 4-4l17-38 37-17c2-1 4-2 5-4 1-2 2-4 2-5 0-2-1-4-2-6-1-1-3-3-5-4l-37-17-17-37c-1-2-3-4-4-5-2-1-4-2-6-2-1 0-3 1-5 2-2 1-3 3-4 5z"/>
<glyph glyph-name="auto-fix-high" unicode="&#77;" d="M406 406l-33 16c-2 1-3 3-3 5 0 2 1 3 3 4l33 16 16 33c1 2 3 3 5 3 2 0 3-1 4-3l16-33 33-16c2-1 3-2 3-4 0-2-1-4-3-5l-33-16-16-33c-1-2-2-3-4-3-2 0-4 1-5 3z m-245 0l-33 16c-2 1-3 3-3 5 0 2 1 3 3 4l33 16 16 33c1 2 2 3 4 3 2 0 4-1 5-3l16-33 33-16c2-1 3-2 3-4 0-2-1-4-3-5l-33-16-16-33c-1-2-3-3-5-3-2 0-3 1-4 3z m245-245l-33 16c-2 1-3 2-3 4 0 2 1 4 3 5l33 16 16 33c1 2 3 3 5 3 2 0 3-1 4-3l16-33 33-16c2-1 3-3 3-5 0-2-1-3-3-4l-33-16-16-33c-1-2-2-3-4-3-2 0-4 1-5 3z m-297-112l-60 60c-4 4-6 9-6 15 0 6 2 11 6 16l238 238c4 4 9 6 15 6 6 0 12-2 16-6l60-60c4-4 6-10 6-16 0-6-2-11-6-15l-238-238c-5-4-10-6-16-6-6 0-11 2-15 6z m193 224l30 29-30 30-29-30z"/>
<glyph glyph-name="auto-graph" unicode="&#78;" d="M158 371l-30 14c-4 2-6 5-6 10 0 4 2 7 6 9l30 14 14 30c2 4 5 6 9 6 5 0 8-2 10-6l14-30 30-14c4-2 6-5 6-9 0-5-2-8-6-10l-30-14-14-30c-2-4-5-6-10-6-4 0-7 2-9 6z m142-71l-23 10c-4 2-6 5-6 10 0 5 2 8 6 10l23 10 10 23c2 4 5 6 10 6 5 0 8-2 10-6l10-23 23-10c4-2 6-5 6-10 0-5-2-8-6-10l-23-10-10-23c-2-4-5-6-10-6-5 0-8 2-10 6z m-235-43l-23 11c-4 2-6 5-6 9 0 5 2 8 6 10l23 11 11 23c2 3 5 5 9 5 5 0 8-2 10-5l11-23 23-11c3-2 5-5 5-10 0-4-2-7-5-9l-23-11-11-23c-2-4-5-6-10-6-4 0-7 2-9 6z m15-134l114 113c8 8 18 13 30 13 12 0 22-5 30-13l55-55 137 154c4 5 9 7 15 7 6 0 12-2 16-7 4-3 6-8 6-14 0-5-2-10-6-14l-138-156c-8-9-18-14-30-14-12-1-23 3-32 12l-53 54-112-112c-5-5-10-7-16-7-6 0-11 2-16 7-5 4-7 10-7 16 0 6 2 11 7 16z"/>
<glyph glyph-name="auto-mode" unicode="&#79;" d="M223 223l-52 23c-5 2-7 5-7 10 0 5 2 8 7 10l52 24 23 51c2 5 5 7 10 7 5 0 8-2 10-7l24-51 51-24c5-2 7-5 7-10 0-5-2-8-7-10l-51-23-24-52c-2-5-5-7-10-7-5 0-8 2-10 7z m-159-101l0-37c0-6-2-11-6-15-4-4-9-6-15-6-6 0-11 2-16 6-4 4-6 9-6 15l0 86c0 6 2 11 6 15 5 4 10 6 16 6l85 0c6 0 11-2 15-6 4-4 6-9 6-15 0-6-2-11-6-16-4-4-9-6-15-6l-31 0c18-26 41-47 69-62 28-15 58-23 90-23 37 0 71 10 101 29 31 19 54 45 71 77 3 6 7 11 12 15 5 3 11 4 18 3 7-2 11-5 13-11 2-6 1-12-2-19-19-41-48-74-86-99-38-25-80-38-127-38-38 0-74 9-108 27-34 17-62 42-84 74z m-20 155c-6 0-11 3-14 7-4 4-5 10-4 16 3 16 8 32 13 46 6 14 14 28 23 42 4 6 9 9 14 9 6 1 11-1 16-6 5-5 7-10 7-16 0-6-2-12-6-18-6-9-11-18-14-27-4-10-7-20-10-31-1-6-4-11-8-16-5-4-10-6-17-6z m191 191c0-6-2-12-6-16-5-5-10-7-17-9-10-2-20-5-29-9-9-4-19-9-28-15-5-4-11-6-17-6-6 1-11 3-16 8-5 5-7 9-6 15 1 6 3 10 8 14 14 9 28 17 42 23 13 6 28 10 45 13 7 1 12 0 17-3 4-4 7-9 7-15z m156-47c-5-5-10-7-16-7-6-1-12 1-18 5-9 6-18 11-27 15-10 3-20 6-31 9-6 2-11 5-16 9-4 4-6 10-6 16 0 6 3 11 7 15 4 3 10 4 16 3 17-3 32-7 46-13 14-6 28-13 42-23 5-3 8-8 9-14 1-5-1-10-6-15z m77-144c-6 0-12 2-16 6-5 5-7 10-9 17-3 11-6 21-10 30-3 9-8 18-14 28-4 6-6 11-6 17 1 6 3 11 8 16 5 5 9 7 15 6 6-1 10-4 14-9 10-14 17-28 23-42 6-14 10-29 13-46 1-6 0-12-3-16-4-4-9-7-15-7z"/>
<glyph glyph-name="bakery-dining" unicode="&#80;" d="M445 134l-52 19 41 114 45-93c5-10 3-20-6-29-9-10-18-14-28-11z m-134 21l23 199c1 5 4 9 8 11 4 2 9 2 14 0l54-19c5-3 8-6 9-10 2-4 2-9 0-14l-60-167z m-157 0l-61 167c-1 5-2 10 0 14 2 5 5 8 10 10l53 19c5 2 10 3 14 1 5-2 7-6 8-12l23-199z m-92-21c-9-2-18 1-25 11-8 10-9 19-4 29l46 93 41-114z m171 21l-26 229c-1 6 1 11 5 15 4 4 9 6 15 6l58 0c6 0 11-2 15-6 4-4 6-9 5-15l-26-229z"/>
<glyph glyph-name="bar-chart" unicode="&#81;" d="M384 85c-12 0-22 5-30 13-8 8-13 18-13 30l0 64c0 12 5 22 13 30 8 8 18 13 30 13 12 0 22-5 30-13 8-8 13-18 13-30l0-64c0-12-5-22-13-30-8-8-18-13-30-13z m-128 0c-12 0-22 5-30 13-8 8-13 18-13 30l0 256c0 12 5 22 13 30 8 8 18 13 30 13 12 0 22-5 30-13 8-8 13-18 13-30l0-256c0-12-5-22-13-30-8-8-18-13-30-13z m-128 0c-12 0-22 5-30 13-8 8-13 18-13 30l0 149c0 12 5 22 13 30 8 9 18 13 30 13 12 0 22-4 30-13 8-8 13-18 13-30l0-149c0-12-5-22-13-30-8-8-18-13-30-13z"/>
<glyph glyph-name="beach-access" unicode="&#82;" d="M404 79l-120 120 30 30 120-120c4-4 6-9 6-15 0-6-2-11-6-15-4-4-9-6-15-6-6 0-11 2-15 6z m-241 35c-10-10-22-15-35-15-14 1-24 7-31 18-21 33-33 69-34 107-1 39 8 75 27 109 1-12 4-25 9-40 5-16 11-31 20-48 9-17 19-34 31-52 12-17 26-35 40-52z m57 57c-17 17-32 35-45 55-13 20-23 40-30 59-7 19-12 36-12 51-1 16 2 27 9 35 8 7 19 11 35 10 15 0 33-4 52-12 19-7 38-17 58-30 20-13 39-28 56-45z m176 244c11-7 17-17 17-30 1-13-4-25-14-35l-27-27c-16 15-34 28-51 40-18 11-35 22-51 31-17 8-33 16-48 21-15 5-29 8-41 9 34 17 70 25 109 24 38-1 73-12 106-33z"/>
<glyph glyph-name="bolt" unicode="&#83;" d="M192 192l-66 0c-9 0-15 4-19 11-4 8-4 15 1 23l160 229c3 5 8 8 14 10 5 2 11 2 17 0 6-2 11-6 14-11 2-5 3-11 3-17l-17-138 82 0c10 0 16-4 20-13 4-8 2-15-4-23l-175-210c-4-4-9-7-15-9-5-1-11-1-16 2-5 2-10 6-13 11-3 5-4 11-3 17z"/>
<glyph glyph-name="bookmark-add" unicode="&#84;" d="M363 363l-22 0c-6 0-11 2-15 6-4 4-6 9-6 15 0 6 2 11 6 15 4 4 9 6 15 6l22 0 0 22c0 6 2 11 6 15 4 4 9 6 15 6 6 0 11-2 15-6 4-4 6-9 6-15l0-22 22 0c6 0 11-2 15-6 4-4 6-9 6-15 0-6-2-11-6-15-4-4-9-6-15-6l-22 0 0-22c0-6-2-11-6-15-4-4-9-6-15-6-6 0-11 2-15 6-4 4-6 9-6 15z m-107-235l-90-38c-14-6-27-5-40 3-13 8-19 20-19 36l0 276c0 12 4 22 12 30 9 9 19 13 30 13l150 0c-7-11-13-21-16-31-4-9-6-21-6-33 0-26 8-48 25-68 16-19 36-32 61-37 8-1 15-1 21-1 6 0 13 0 21 1l0-150c0-16-6-28-19-36-13-8-26-9-40-3z"/>
<glyph glyph-name="brush" unicode="&#85;" d="M128 64c-16 0-32 4-47 12-16 8-29 18-38 31 9 0 18 3 28 11 10 7 14 17 14 31 0 18 7 33 19 46 12 12 28 18 45 18 18 0 33-6 46-18 12-13 18-28 18-46 0-23-8-43-25-60-16-17-37-25-60-25z m123 128l-59 59 191 191c4 4 9 6 15 6 5 0 11-2 15-6l29-29c4-4 6-9 6-15 0-6-2-11-6-15z"/>
<glyph glyph-name="bubble-chart" unicode="&#86;" d="M309 64c-17 0-33 6-45 19-12 12-19 27-19 45 0 18 7 33 19 45 12 13 28 19 45 19 18 0 33-6 46-19 12-12 18-27 18-45 0-18-6-33-18-45-13-13-28-19-46-19z m43 149c-33 0-60 12-83 34-23 23-34 51-34 84 0 32 11 60 34 83 23 23 50 34 83 34 33 0 60-11 83-34 23-23 34-51 34-83 0-33-11-61-34-84-23-22-50-34-83-34z m-203-85c-23 0-43 8-60 25-17 17-25 37-25 60 0 24 8 44 25 61 17 16 37 25 60 25 24 0 44-9 61-25 16-17 25-37 25-61 0-23-9-43-25-60-17-17-37-25-61-25z"/>
<glyph glyph-name="build" unicode="&#87;" d="M192 192c-36 0-66 12-91 37-25 25-37 55-37 91 0 7 1 14 2 21 1 7 3 14 5 21 2 3 4 6 7 8 3 1 6 3 9 3 3 1 6 1 10 0 3-1 6-3 9-6l56-56 39 39-56 56c-3 3-5 6-6 9-1 4-1 7 0 10 0 3 2 6 3 9 2 3 5 5 8 7 7 2 14 4 21 5 7 1 14 2 21 2 36 0 66-12 91-37 25-25 37-55 37-91 0-8-1-16-2-23-2-7-4-15-7-22l108-106c11-11 16-23 16-38 0-15-5-28-16-38-10-11-23-16-38-16-15 0-27 6-38 16l-106 108c-7-3-15-5-22-7-7-1-15-2-23-2z"/>
<glyph glyph-name="business-center" unicode="&#88;" d="M235 192l0 43 42 0 0-43z m-22 192l86 0 0 43-86 0z m-128-320c-11 0-21 4-30 13-8 8-12 18-12 30l0 85 149 0 0-21c0-6 2-11 6-16 4-4 9-6 15-6l86 0c6 0 11 2 15 6 4 5 6 10 6 16l0 21 149 0 0-85c0-12-4-22-12-30-9-9-19-13-30-13z m-42 171l0 106c0 12 4 22 12 30 9 9 19 13 30 13l86 0 0 43c0 11 4 21 12 30 9 8 19 12 30 12l86 0c11 0 21-4 30-12 8-9 12-19 12-30l0-43 86 0c11 0 21-4 30-13 8-8 12-18 12-30l0-106-149 0 0 21c0 6-2 11-6 15-4 4-9 6-15 6l-86 0c-6 0-11-2-15-6-4-4-6-9-6-15l0-21z"/>
<glyph glyph-name="calendar-month" unicode="&#89;" d="M107 43c-12 0-22 4-30 12-9 9-13 19-13 30l0 299c0 12 4 22 13 30 8 8 18 13 30 13l21 0 0 21c0 6 2 11 6 15 4 4 9 6 15 6 6 0 11-2 16-6 4-4 6-9 6-15l0-21 170 0 0 21c0 6 2 11 6 15 5 4 10 6 16 6 6 0 11-2 15-6 4-4 6-9 6-15l0-21 21 0c12 0 22-5 30-13 9-8 13-18 13-30l0-299c0-11-4-21-13-30-8-8-18-12-30-12z m0 42l298 0 0 214-298 0z m149 128c-6 0-11 2-15 6-4 5-6 10-6 16 0 6 2 11 6 15 4 4 9 6 15 6 6 0 11-2 15-6 4-4 6-9 6-15 0-6-2-11-6-16-4-4-9-6-15-6z m-85 0c-6 0-11 2-16 6-4 5-6 10-6 16 0 6 2 11 6 15 5 4 10 6 16 6 6 0 11-2 15-6 4-4 6-9 6-15 0-6-2-11-6-16-4-4-9-6-15-6z m170 0c-6 0-11 2-15 6-4 5-6 10-6 16 0 6 2 11 6 15 4 4 9 6 15 6 6 0 11-2 16-6 4-4 6-9 6-15 0-6-2-11-6-16-5-4-10-6-16-6z m-85-85c-6 0-11 2-15 6-4 4-6 9-6 15 0 6 2 11 6 16 4 4 9 6 15 6 6 0 11-2 15-6 4-5 6-10 6-16 0-6-2-11-6-15-4-4-9-6-15-6z m-85 0c-6 0-11 2-16 6-4 4-6 9-6 15 0 6 2 11 6 16 5 4 10 6 16 6 6 0 11-2 15-6 4-5 6-10 6-16 0-6-2-11-6-15-4-4-9-6-15-6z m170 0c-6 0-11 2-15 6-4 4-6 9-6 15 0 6 2 11 6 16 4 4 9 6 15 6 6 0 11-2 16-6 4-5 6-10 6-16 0-6-2-11-6-15-5-4-10-6-16-6z"/>
<glyph glyph-name="campaign" unicode="&#90;" d="M448 235l-43 0c-6 0-11 2-15 6-4 4-6 9-6 15 0 6 2 11 6 15 4 4 9 6 15 6l43 0c6 0 11-2 15-6 4-4 6-9 6-15 0-6-2-11-6-15-4-4-9-6-15-6z m-94-81c4 5 8 7 14 8 6 1 11-1 16-4l34-26c5-3 8-8 9-14 0-5-1-11-5-16-3-5-8-7-13-8-6-1-11 1-16 4l-35 26c-5 3-7 8-8 14-1 5 1 11 4 16z m64 226l-34-26c-5-3-10-5-16-4-6 1-10 3-14 8-3 5-5 11-4 16 1 6 3 11 8 14l35 26c5 3 10 5 16 4 5-1 10-3 13-8 4-5 5-11 5-16-1-6-4-11-9-14z m-311-188l-22 0c-11 0-21 4-30 13-8 8-12 18-12 30l0 42c0 12 4 22 12 30 9 9 19 13 30 13l86 0 74 45c7 4 14 4 21 0 8-4 11-11 11-19l0-180c0-8-3-15-11-19-7-4-14-4-21 0l-74 45-22 0 0-64c0-6-2-11-6-15-4-4-9-6-15-6-6 0-11 2-15 6-4 4-6 9-6 15z m192-7l0 142c9-8 17-18 23-31 6-12 9-25 9-40 0-15-3-28-9-40-6-13-14-23-23-31z"/>
<glyph glyph-name="card-travel" unicode="&#48;" d="M149 384l0 43c0 11 5 21 13 30 8 8 18 12 30 12l128 0c12 0 22-4 30-12 8-9 13-19 13-30l0-43 64 0c11 0 21-4 30-13 8-8 12-18 12-30l0-234c0-12-4-22-12-30-9-9-19-13-30-13l-342 0c-11 0-21 4-30 13-8 8-12 18-12 30l0 234c0 12 4 22 12 30 9 9 19 13 30 13z m43 0l128 0 0 43-128 0z m-107-235l342 0 0 64-342 0z"/>
<glyph glyph-name="casino" unicode="&#49;" d="M160 128c9 0 16 3 23 9 6 7 9 14 9 23 0 9-3 16-9 23-7 6-14 9-23 9-9 0-16-3-23-9-6-7-9-14-9-23 0-9 3-16 9-23 7-6 14-9 23-9z m0 192c9 0 16 3 23 9 6 7 9 14 9 23 0 9-3 16-9 23-7 6-14 9-23 9-9 0-16-3-23-9-6-7-9-14-9-23 0-9 3-16 9-23 7-6 14-9 23-9z m96-96c9 0 16 3 23 9 6 7 9 14 9 23 0 9-3 16-9 23-7 6-14 9-23 9-9 0-16-3-23-9-6-7-9-14-9-23 0-9 3-16 9-23 7-6 14-9 23-9z m96-96c9 0 16 3 23 9 6 7 9 14 9 23 0 9-3 16-9 23-7 6-14 9-23 9-9 0-16-3-23-9-6-7-9-14-9-23 0-9 3-16 9-23 7-6 14-9 23-9z m0 192c9 0 16 3 23 9 6 7 9 14 9 23 0 9-3 16-9 23-7 6-14 9-23 9-9 0-16-3-23-9-6-7-9-14-9-23 0-9 3-16 9-23 7-6 14-9 23-9z m-245-256c-12 0-22 4-30 13-9 8-13 18-13 30l0 298c0 12 4 22 13 30 8 9 18 13 30 13l298 0c12 0 22-4 30-13 9-8 13-18 13-30l0-298c0-12-4-22-13-30-8-9-18-13-30-13z"/>
<glyph glyph-name="cast" unicode="&#50;" d="M75 85c-9 0-17 3-23 10-6 6-9 13-9 22 0 9 3 17 9 23 6 6 14 9 23 9 9 0 16-3 22-9 7-6 10-14 10-23 0-9-3-16-10-22-6-7-13-10-22-10z m96 0c-6 0-11 2-15 5-5 4-7 8-8 14-4 22-14 41-30 57-17 16-36 25-58 29-6 1-10 4-13 8-3 5-4 10-4 15 0 6 2 11 5 16 4 4 9 5 14 5 33-5 62-19 86-43 24-23 38-52 42-85 1-6 0-11-4-15-4-4-9-6-15-6z m85 0c-6 0-11 2-15 6-4 4-7 9-7 15-5 46-24 84-56 116-32 32-71 50-117 54-5 1-10 3-13 8-4 4-5 9-5 15 0 6 2 11 5 15 4 4 9 6 14 5 57-4 106-26 146-66 40-40 63-89 68-146 1-6-1-11-5-15-4-5-9-7-15-7z m64 0c0 39-7 75-22 109-14 33-34 63-59 88-25 25-54 45-88 59-34 14-70 22-108 22l0 21c0 12 4 22 12 30 9 8 19 13 30 13l342 0c11 0 21-5 30-13 8-8 12-18 12-30l0-256c0-12-4-22-12-30-9-8-19-13-30-13z"/>
<glyph glyph-name="cast-connected" unicode="&#51;" d="M363 171l-56 0c-13 38-33 73-60 102-27 30-59 52-97 68l213 0c6 0 11-2 15-6 4-4 6-9 6-15l0-128c0-6-2-11-6-15-4-4-9-6-15-6z m64-86l-107 0c0 7 0 15-1 22 0 7-1 14-2 21l110 0 0 256-342 0 0-25c-7 2-14 2-21 3-7 0-14 1-21 1l0 21c0 12 4 22 12 30 9 8 19 13 30 13l342 0c11 0 21-5 30-13 8-8 12-18 12-30l0-256c0-12-4-22-12-30-9-8-19-13-30-13z m-256 0c-6 0-11 2-15 5-5 4-7 8-8 14-4 22-14 41-30 57-17 16-36 25-58 29-6 1-10 4-13 8-3 5-4 10-4 15 0 6 2 11 6 16 3 4 8 5 13 5 34-5 62-19 86-43 24-23 38-52 42-85 1-6 0-11-4-15-4-4-9-6-15-6z m85 0c-6 0-11 2-15 6-4 4-7 9-7 15-5 46-24 84-56 116-32 32-71 50-117 54-5 1-10 3-13 8-4 4-5 9-5 15 0 6 2 11 5 15 4 4 9 6 14 5 57-4 106-26 146-66 40-40 63-89 68-146 1-6-1-11-5-15-4-5-9-7-15-7z m-181 0c-9 0-17 3-23 10-6 6-9 13-9 22 0 9 3 17 9 23 6 6 14 9 23 9 9 0 16-3 22-9 7-6 10-14 10-23 0-9-3-16-10-22-6-7-13-10-22-10z"/>
<glyph glyph-name="celebration" unicode="&#52;" d="M58 85l80 224c2 5 5 9 8 11 4 2 8 4 12 4 3 0 6-1 8-2 3-1 5-3 7-5l144-144c2-2 4-4 5-7 1-2 2-5 2-8 0-4-2-8-4-12-2-3-6-6-11-8l-224-80c-4-2-8-2-12-1-4 1-7 3-10 6-3 3-5 6-6 10-1 4-1 8 1 12z m433 277c-3-3-7-5-11-5-4 0-8 2-11 5l-2 2c-5 5-11 7-18 7-8 0-14-2-19-7l-108-109c-4-3-7-4-12-4-4 0-8 1-11 4-3 4-5 7-5 12 0 4 2 8 5 11l108 108c12 12 26 17 42 17 16 0 29-5 41-17l1-1c3-4 5-7 5-12 0-4-2-8-5-11z m-278 64c3 3 7 5 11 5 4 0 8-2 11-5l3-3c11-11 17-24 17-40 0-16-6-29-17-41l-2-1c-3-3-7-5-11-5-4 0-8 2-11 5-3 3-5 7-5 11 0 4 2 8 5 11l1 2c5 5 8 11 8 18 0 7-3 13-8 18l-2 3c-3 3-5 7-5 11 0 4 2 8 5 11z m86 43c3 3 7 5 11 5 5 0 8-2 12-5l23-23c11-12 17-25 17-41 0-16-6-30-17-41l-66-66c-3-3-7-5-11-5-5 0-8 2-11 5-4 3-5 7-5 11 0 5 1 8 5 12l65 65c5 5 8 11 8 19 0 7-3 13-8 18l-23 23c-3 4-5 7-5 12 0 4 2 8 5 11z m171-256c-3-3-7-5-11-5-5 0-8 2-12 5l-22 23c-5 5-12 7-19 7-8 0-14-2-19-7l-23-23c-3-3-7-5-11-5-4 0-8 2-11 5-3 3-5 7-5 11 0 4 2 8 5 11l23 23c11 12 25 17 41 17 16 0 30-5 41-17l23-23c3-3 5-7 5-11 0-4-2-8-5-11z"/>
<glyph glyph-name="close" unicode="&#53;" d="M256 226l-105-104c-3-4-8-6-14-6-7 0-11 2-15 6-4 4-6 8-6 15 0 6 2 11 6 14l104 105-104 105c-4 3-6 8-6 14 0 7 2 11 6 15 4 4 8 6 15 6 6 0 11-2 14-6l105-104 105 104c3 4 8 6 14 6 7 0 11-2 15-6 4-4 6-8 6-15 0-6-2-11-6-14l-104-105 104-105c4-3 6-8 6-14 0-7-2-11-6-15-4-4-8-6-15-6-6 0-11 2-14 6z"/>
<glyph glyph-name="cloud-download" unicode="&#54;" d="M139 85c-33 0-60 12-83 34-23 22-35 50-35 82 0 28 9 53 25 74 17 22 39 36 66 42 8 29 23 53 46 72 22 20 48 32 77 36l0-172-20 18c-3 4-8 6-14 6-6 0-11-2-15-6-4-4-6-9-6-15 0-6 2-11 6-15l55-55c4-5 9-7 15-7 6 0 11 2 15 7l55 55c4 4 6 9 7 15 0 6-2 11-7 15-4 4-8 6-14 6-6 0-11-2-15-6l-20-18 0 172c37-5 67-21 92-49 24-28 36-61 36-99 25-3 45-13 61-31 17-19 25-40 25-65 0-26-10-49-28-68-19-18-42-28-68-28z"/>
<glyph glyph-name="cloud-sync" unicode="&#55;" d="M128 256c0-19 4-37 11-53 8-16 19-30 32-42l0 31c0 6 2 11 6 15 4 4 9 6 15 6 6 0 11-2 15-6 4-4 6-9 6-15l0-85c0-6-2-11-6-16-4-4-9-6-15-6l-85 0c-6 0-11 2-16 6-4 5-6 10-6 16 0 6 2 11 6 15 5 4 10 6 16 6l36 0c-18 16-32 34-42 57-11 22-16 45-16 71 0 34 9 64 27 91 17 27 40 48 68 62 5 3 10 3 16 0 5-2 9-7 10-12 2-6 2-11 0-17-3-5-6-9-11-12-20-11-36-26-49-46-12-20-18-42-18-66z m192-171c-18 0-33 7-45 19-13 12-19 28-19 45 0 17 6 32 18 44 11 13 26 19 43 20 6 13 15 23 27 31 12 8 25 12 40 12 19 0 35-6 49-18 13-13 22-28 25-46 15 0 27-5 38-15 11-11 16-23 16-38 0-15-5-27-15-38-11-10-23-16-38-16z m62 192c-3 15-7 28-15 41-7 12-15 23-26 33l0-31c0-6-2-11-6-15-4-4-9-6-15-6-6 0-11 2-15 6-4 4-6 9-6 15l0 85c0 6 2 11 6 16 4 4 9 6 15 6l85 0c6 0 11-2 16-6 4-5 6-10 6-16 0-6-2-11-6-15-5-4-10-6-16-6l-36 0c15-14 27-29 37-47 10-19 16-38 19-60z"/>
<glyph glyph-name="coffee" unicode="&#56;" d="M235 128c-42 0-77 14-106 43-29 29-44 65-44 106l0 128c0 12 5 22 13 30 8 9 18 13 30 13l267 0c20 0 38-7 52-22 15-14 22-32 22-53 0-20-7-38-22-52-14-15-32-22-52-22l-11 0 0-22c0-41-14-77-43-106-29-29-65-43-106-43z m-107 213l213 0 0 64-213 0z m256 0l11 0c9 0 16 3 22 10 7 6 10 13 10 22 0 9-3 17-10 23-6 6-13 9-22 9l-11 0z m-277-277c-6 0-11 2-16 6-4 4-6 9-6 15 0 6 2 11 6 16 5 4 10 6 16 6l298 0c6 0 11-2 16-6 4-5 6-10 6-16 0-6-2-11-6-15-5-4-10-6-16-6z"/>
<glyph glyph-name="collections-bookmark" unicode="&#57;" d="M171 128c-12 0-22 4-30 13-9 8-13 18-13 30l0 256c0 11 4 21 13 30 8 8 18 12 30 12l256 0c11 0 21-4 30-12 8-9 12-19 12-30l0-256c0-12-4-22-12-30-9-9-19-13-30-13z m-86-85c-11 0-21 4-30 12-8 9-12 19-12 30l0 278c0 6 2 11 6 15 4 4 9 6 15 6 6 0 11-2 15-6 4-4 6-9 6-15l0-278 278 0c6 0 11-2 15-6 4-4 6-9 6-15 0-6-2-11-6-15-4-4-9-6-15-6z m192 253c0-4 2-7 6-9 3-2 7-2 10 0l26 16c4 2 8 3 12 3 4 0 7-1 11-3l26-16c4-2 7-2 11 0 3 2 5 5 5 9l0 131-107 0z"/>
<glyph glyph-name="computer" unicode="&#33;" d="M43 64c-6 0-11 2-16 6-4 4-6 9-6 15 0 6 2 11 6 16 5 4 10 6 16 6l426 0c6 0 11-2 16-6 4-5 6-10 6-16 0-6-2-11-6-15-5-4-10-6-16-6z m42 64c-11 0-21 4-30 13-8 8-12 18-12 30l0 234c0 12 4 22 12 30 9 9 19 13 30 13l342 0c11 0 21-4 30-13 8-8 12-18 12-30l0-234c0-12-4-22-12-30-9-9-19-13-30-13z"/>
<glyph glyph-name="connect-without-contact" unicode="&#34;" d="M363 43c-6 0-11 2-16 6-4 4-6 9-6 15l0 27c-14 4-26 11-37 21-11 9-20 20-26 34-3 5-3 10 0 16 3 5 7 9 13 11 5 2 10 2 15 0 5-3 8-6 11-11 6-11 14-19 24-25 10-6 21-9 32-9l64 0c9 0 17-3 23-9 6-7 9-14 9-23l0-32c0-6-2-11-6-15-4-4-9-6-15-6z m42 106c-11 0-21 5-30 13-8 8-12 18-12 30 0 12 4 22 12 30 9 8 19 13 30 13 12 0 22-5 30-13 9-8 13-18 13-30 0-12-4-22-13-30-8-8-18-13-30-13z m-41 213c-33-5-62-19-85-43-24-23-38-52-43-85 0-6-3-11-7-15-4-4-10-6-16-6-6 0-11 2-15 6-4 5-6 9-5 15 5 46 24 84 56 116 32 32 71 50 116 54 6 1 10-1 14-5 3-4 5-9 5-15 0-6-2-11-6-15-3-4-8-7-14-7z m3-87c-11-3-20-8-28-16-9-8-14-18-17-29-1-5-4-9-9-12-4-3-9-5-14-5-6 0-11 2-15 6-4 4-6 8-5 13 4 22 14 41 30 57 16 16 36 25 58 29 5 1 9-1 12-5 3-4 5-9 5-14 0-6-2-11-5-15-3-4-7-7-12-9z m-303 2c-6 0-11 2-15 6-4 5-6 10-6 16l0 32c0 9 3 16 9 22 6 7 14 10 23 10l64 0c11 0 22 3 32 9 10 6 18 14 24 24 3 5 6 9 11 12 5 3 11 4 16 2 6-2 11-5 14-10 3-5 3-10 1-15-6-15-15-27-26-37-12-10-25-18-40-23l0-26c0-6-2-11-6-16-5-4-10-6-16-6z m43 107c-12 0-22 4-30 13-9 8-13 18-13 30 0 11 4 21 13 30 8 8 18 12 30 12 11 0 21-4 30-12 8-9 12-19 12-30 0-12-4-22-12-30-9-9-19-13-30-13z"/>
<glyph glyph-name="connected-tv" unicode="&#35;" d="M107 171l42 0c0 11-4 21-12 30-9 8-19 12-30 12z m75 0l31 0c0 29-10 54-31 75-21 21-46 31-75 31l0-31c21 0 39-7 53-22 15-14 22-32 22-53z m64 0l31 0c0 23-4 45-13 66-9 21-21 39-37 54-15 16-33 28-54 37-21 9-43 13-66 13l0-31c38 0 71-13 99-40 27-28 40-61 40-99z m-161-64c-11 0-21 4-30 12-8 9-12 19-12 30l0 256c0 12 4 22 12 30 9 9 19 13 30 13l342 0c11 0 21-4 30-13 8-8 12-18 12-30l0-256c0-11-4-21-12-30-9-8-19-12-30-12l-86 0 0-22c0-6-2-11-6-15-4-4-9-6-15-6l-128 0c-6 0-11 2-15 6-4 4-6 9-6 15l0 22z"/>
<glyph glyph-name="content-copy" unicode="&#36;" d="M192 128c-12 0-22 4-30 13-8 8-13 18-13 30l0 256c0 11 5 21 13 30 8 8 18 12 30 12l192 0c12 0 22-4 30-12 8-9 13-19 13-30l0-256c0-12-5-22-13-30-8-9-18-13-30-13z m-85-85c-12 0-22 4-30 12-9 9-13 19-13 30l0 278c0 6 2 11 6 15 4 4 9 6 15 6 6 0 11-2 16-6 4-4 6-9 6-15l0-278 213 0c6 0 11-2 15-6 4-4 6-9 6-15 0-6-2-11-6-15-4-4-9-6-15-6z"/>
<glyph glyph-name="coronavirus" unicode="&#37;" d="M240 43c-4 0-8 1-11 4-3 4-5 7-5 12 0 4 2 8 5 11 3 3 7 5 11 5l0 33c-15 2-29 5-42 10-13 6-25 13-36 22l-23-24c3-3 5-7 5-11 0-4-2-8-5-11-3-3-7-5-11-5-4 0-8 2-11 5l-23 22c-3 3-5 7-5 12 0 4 2 8 5 11 3 3 7 5 11 5 4 0 8-2 11-5l24 24c-9 11-16 23-22 35-5 13-8 27-10 42l-33 0c0-4-2-8-5-11-3-3-7-5-11-5-5 0-8 2-12 5-3 3-4 7-4 11l0 32c0 4 1 8 4 11 4 3 7 5 12 5 4 0 8-2 11-5 3-3 5-7 5-11l33 0c2 15 5 29 11 42 5 12 12 24 21 35l-24 24c-3-3-7-5-11-5-4 0-8 2-11 5-3 3-5 7-5 11 0 5 2 9 5 12l22 22c3 3 7 5 12 5 4 0 8-2 11-5 3-3 5-7 5-11 0-5-2-9-5-12l23-23c11 9 23 16 36 22 13 5 27 8 41 10l0 33c-4 0-7 2-10 5-3 3-5 7-5 11 0 5 2 8 5 12 3 3 7 4 11 4l32 0c4 0 8-1 11-4 3-4 5-7 5-12 0-4-2-8-5-11-3-3-7-5-11-5l0-33c15-2 29-5 42-10 12-6 24-13 35-22l24 24c-3 3-5 7-5 11 0 4 2 8 5 11 3 3 7 5 11 5 5 0 9-2 12-5l22-23c3-3 5-7 5-11 0-4-2-8-5-11-3-3-7-5-11-5-5 0-9 2-12 5l-23-23c9-11 16-23 22-36 5-13 8-27 10-42l33 0c0 4 2 8 5 11 3 3 7 5 11 5 5 0 8-2 12-5 3-3 4-7 4-11l0-32c0-4-1-8-4-11-4-3-7-5-12-5-4 0-8 2-11 5-3 3-5 7-5 11l-33 0c-2-15-5-29-10-42-6-13-13-25-22-36l23-23c3 3 7 5 12 5 4 0 8-2 11-5 3-3 5-7 5-11 0-5-2-9-5-12l-22-22c-3-3-7-5-12-5-4 0-8 2-11 5-3 3-5 7-5 11 0 4 2 8 5 11l-24 24c-11-9-23-16-35-22-13-5-27-9-42-11l0-32c4 0 8-2 11-5 3-3 5-7 5-11 0-5-2-8-5-12-3-3-7-4-11-4z m-21 128c6 0 11 2 15 6 4 4 6 9 6 15 0 6-2 11-6 15-4 4-9 6-15 6-6 0-11-2-16-6-4-4-6-9-6-15 0-6 2-11 6-15 5-4 10-6 16-6z m74 0c6 0 11 2 16 6 4 4 6 9 6 15 0 6-2 11-6 15-5 4-10 6-16 6-6 0-11-2-15-6-4-4-6-9-6-15 0-6 2-11 6-15 4-4 9-6 15-6z m-112 64c6 0 11 2 16 6 4 4 6 9 6 15 0 6-2 11-6 15-5 4-10 6-16 6-6 0-11-2-15-6-4-4-6-9-6-15 0-6 2-11 6-15 4-4 9-6 15-6z m75 0c6 0 11 2 15 6 4 4 6 9 6 15 0 6-2 11-6 15-4 4-9 6-15 6-6 0-11-2-15-6-4-4-6-9-6-15 0-6 2-11 6-15 4-4 9-6 15-6z m75 0c6 0 11 2 15 6 4 4 6 9 6 15 0 6-2 11-6 15-4 4-9 6-15 6-6 0-11-2-16-6-4-4-6-9-6-15 0-6 2-11 6-15 5-4 10-6 16-6z m-112 64c6 0 11 2 15 6 4 4 6 9 6 15 0 6-2 11-6 15-4 4-9 6-15 6-6 0-11-2-16-6-4-4-6-9-6-15 0-6 2-11 6-15 5-4 10-6 16-6z m74 0c6 0 11 2 16 6 4 4 6 9 6 15 0 6-2 11-6 15-5 4-10 6-16 6-6 0-11-2-15-6-4-4-6-9-6-15 0-6 2-11 6-15 4-4 9-6 15-6z"/>
<glyph glyph-name="create" unicode="&#38;" d="M85 64c-6 0-11 2-15 6-4 4-6 9-6 15l0 52c0 6 1 11 3 16 2 5 5 10 9 14l270 269c4 4 9 7 14 9 5 2 10 3 16 3 6 0 11-1 17-3 5-2 9-6 13-10l30-30c4-4 7-8 9-14 2-5 3-10 3-16 0-5-1-11-3-16-2-5-5-10-9-14l-269-269c-4-4-9-7-14-9-5-2-10-3-16-3z m290 282l30 29-30 30-29-30z"/>
<glyph glyph-name="cycle" unicode="&#39;" d="M85 255c0-30 8-58 23-84 15-26 36-47 62-62 5-3 8-8 10-13 2-6 2-11-1-16-3-5-8-9-13-10-6-2-12-1-17 1-33 20-59 46-78 78-19 33-28 68-28 106 0 10 0 19 2 28 1 9 2 17 5 26l-7-4c-5-3-11-4-16-2-6 1-10 5-13 10-3 5-4 10-2 16 2 6 5 10 10 13l64 37c5 3 11 4 17 2 6-2 10-5 13-10l37-64c3-5 4-10 2-16-2-6-5-10-10-13-5-3-10-4-16-2-6 2-10 5-13 10l-18 31c-4-10-7-20-9-30-3-10-4-21-4-32z m171 172c-15 0-29-2-43-6-14-4-28-9-41-16-5-3-11-4-17-3-5 1-10 4-13 9-3 5-4 11-2 17 2 6 6 10 11 14 16 9 33 16 51 20 17 5 36 7 54 7 28 0 55-5 81-15 26-11 49-26 69-46l0 8c0 6 2 11 6 15 4 4 9 6 15 6 6 0 11-2 15-6 4-4 7-9 7-15l0-75c0-6-3-11-7-15-4-4-9-6-15-6l-74 0c-7 0-12 2-16 6-4 4-6 9-6 15 0 6 2 11 6 16 4 4 9 6 16 6l36 0c-16 20-36 36-59 47-23 11-48 17-74 17z m129-284c14 16 24 33 31 52 7 19 11 39 11 59 0 6 2 12 6 16 4 5 9 7 15 7 6 0 11-2 15-7 4-4 6-10 6-16 0-23-3-45-11-67-7-21-17-41-31-60-14-18-31-34-50-47-19-13-39-23-62-29l6-4c5-2 8-7 9-13 2-5 1-11-2-16-3-5-7-8-13-9-5-2-11-1-16 2l-65 37c-5 3-8 7-10 13-1 6-1 11 2 16l37 65c3 5 8 8 13 9 6 2 11 1 16-2 5-3 9-7 10-13 2-6 1-11-2-16l-19-34c20 3 39 10 57 19 18 10 34 23 47 38z"/>
<glyph glyph-name="dashboard-customize" unicode="&#40;" d="M85 277c-6 0-11 2-15 6-4 5-6 10-6 16l0 128c0 6 2 11 6 15 4 4 9 6 15 6l128 0c6 0 11-2 16-6 4-4 6-9 6-15l0-128c0-6-2-11-6-16-5-4-10-6-16-6z m214 0c-6 0-11 2-16 6-4 5-6 10-6 16l0 128c0 6 2 11 6 15 5 4 10 6 16 6l128 0c6 0 11-2 15-6 4-4 6-9 6-15l0-128c0-6-2-11-6-16-4-4-9-6-15-6z m-214-213c-6 0-11 2-15 6-4 4-6 9-6 15l0 128c0 6 2 11 6 16 4 4 9 6 15 6l128 0c6 0 11-2 16-6 4-5 6-10 6-16l0-128c0-6-2-11-6-15-5-4-10-6-16-6z m278 0c-6 0-11 2-16 6-4 4-6 9-6 15l0 43-43 0c-6 0-11 2-15 6-4 4-6 9-6 15 0 6 2 11 6 16 5 4 10 6 16 6l42 0 0 43c0 6 2 11 6 15 5 4 10 6 16 6 6 0 11-2 15-6 4-5 6-10 6-16l0-42 43 0c6 0 11-2 15-6 4-5 6-10 6-16 0-6-2-11-6-15-4-4-9-6-15-6l-43 0 0-43c0-6-2-11-6-15-4-4-9-6-15-6z"/>
<glyph glyph-name="data-exploration" unicode="&#41;" d="M416 75c6 0 11 2 15 6 4 4 6 9 6 15 0 6-2 11-6 15-4 4-9 6-15 6-6 0-11-2-15-6-4-4-6-9-6-15 0-6 2-11 6-15 4-4 9-6 15-6z m-160-32c-37 0-71 8-102 26-32 17-56 40-75 68l94 93 55-47c5-3 9-5 15-5 5 0 10 3 14 7l84 83 0-12c0-6 2-11 6-15 5-4 10-6 16-6 6 0 11 2 15 6 4 4 6 9 6 15l0 64c0 6-2 11-6 15-4 4-9 6-15 6l-64 0c-6 0-11-2-16-6-4-4-6-9-6-15 0-6 2-11 6-15 5-4 10-6 16-6l12 0-70-70-55 46c-5 4-10 5-15 5-6 0-10-2-14-6l-99-99c-5 12-9 25-11 40-3 15-4 29-4 41 0 30 5 57 16 83 12 26 27 49 46 68 19 19 42 34 68 46 26 11 53 16 83 16 30 0 57-5 83-16 26-12 49-27 68-46 19-19 34-42 46-68 11-26 16-53 16-83l0-171c0-11-4-21-12-30-9-8-19-12-30-12z"/>
<glyph glyph-name="data-thresholding" unicode="&#42;" d="M107 64c-12 0-22 4-30 13-9 8-13 18-13 30l0 298c0 12 4 22 13 30 8 9 18 13 30 13l298 0c12 0 22-4 30-13 9-8 13-18 13-30l0-298c0-12-4-22-13-30-8-9-18-13-30-13z m121 213l27-27c5-5 10-7 15-7 6 0 11 2 15 7l79 79c4 3 6 8 6 14 0 7-2 11-6 15-5 5-10 7-15 7-6-1-11-3-15-7l-64-63-27 28c-5 4-10 6-15 6-6 0-11-2-15-6l-65-65c-4-4-6-9-6-15 0-6 2-11 6-15 5-4 10-6 15-6 6 0 11 2 15 6z m-85-106l-36-37 0-27 18 0 64 64z m85 0l-64-64 45 0 64 64z m79 0l-64-64 46 0 64 64z m80 0l-64-64 46 0 36 36 0 28z"/>
<glyph glyph-name="dataset-linked" unicode="&#43;" d="M107 85c-12 0-22 5-30 13-9 8-13 18-13 30l0 299c0 11 4 21 13 30 8 8 18 12 30 12l298 0c12 0 22-4 30-12 9-9 13-19 13-30l0-151c-4 0-7 1-10 1-4 0-7 0-11 0l-128 0c-13 0-26-2-38-5-12-4-23-9-33-16l-57 0c-6 0-11-2-16-6-4-4-6-9-6-15l0-43c0-6 2-11 6-15 5-4 10-6 16-6l1 0c0-4-1-7-1-11 0-3 0-7 0-11 0-11 1-22 4-33 3-11 7-21 13-31z m192-21c-24 0-44 8-61 25-16 17-25 37-25 60 0 24 9 44 25 61 17 16 37 25 61 25l21 0c6 0 11-2 15-6 4-5 6-10 6-16 0-6-2-11-6-15-4-4-9-6-15-6l-21 0c-12 0-22-4-30-13-9-8-13-18-13-30 0-11 4-21 13-30 8-8 18-12 30-12l21 0c6 0 11-2 15-6 4-5 6-10 6-16 0-6-2-11-6-15-4-4-9-6-15-6z m21 64c-6 0-11 2-15 6-4 4-6 9-6 15 0 6 2 11 6 16 4 4 9 6 15 6l85 0c6 0 11-2 16-6 4-5 6-10 6-16 0-6-2-11-6-15-5-4-10-6-16-6z m107-64l-22 0c-6 0-11 2-15 6-4 4-6 9-6 15 0 6 2 11 6 16 4 4 9 6 15 6l22 0c11 0 21 4 30 12 8 9 12 19 12 30 0 12-4 22-12 30-9 9-19 13-30 13l-22 0c-6 0-11 2-15 6-4 4-6 9-6 15 0 6 2 11 6 16 4 4 9 6 15 6l22 0c23 0 43-9 60-25 17-17 25-37 25-61 0-23-8-43-25-60-17-17-37-25-60-25z m-278 299l0-43c0-6 2-11 6-15 5-4 10-6 16-6l42 0c6 0 11 2 16 6 4 4 6 9 6 15l0 43c0 6-2 11-6 15-5 4-10 6-16 6l-42 0c-6 0-11-2-16-6-4-4-6-9-6-15z m150-64l42 0c6 0 11 2 16 6 4 4 6 9 6 15l0 43c0 6-2 11-6 15-5 4-10 6-16 6l-42 0c-6 0-11-2-16-6-4-4-6-9-6-15l0-43c0-6 2-11 6-15 5-4 10-6 16-6z"/>
<glyph glyph-name="design-services" unicode="&#44;" d="M188 278l46 47-30 30-9-8c-4-4-9-6-14-6-6-1-11 1-16 6-4 4-6 9-6 15 0 6 2 11 6 15l8 8-24 24-46-46z m175-175l46 46-24 24-8-8c-5-4-10-6-15-6-6 0-11 2-15 6-5 5-7 10-7 15 0 6 2 11 7 15l8 9-31 30-46-46z m-17 272l30-30 30 30-31 30z m-261-311c-6 0-11 2-15 6-4 4-6 9-6 15l0 61c0 2 1 5 2 8 1 3 2 5 4 7l87 87-92 92c-6 6-9 14-9 23 0 9 3 16 9 22l62 62c6 6 13 9 22 9 9 0 17-4 23-10l93-92 80 81c4 4 9 8 14 10 6 2 11 3 17 3 6 0 11-1 17-3 5-2 10-6 14-10l28-29c4-4 8-9 10-14 2-5 3-11 3-17 0-5-1-11-3-16-2-5-6-10-10-14l-80-81 92-92c6-6 9-14 9-23 0-9-3-16-9-22l-62-62c-6-6-13-9-22-9-9 0-17 3-23 9l-92 92-87-87c-2-2-4-3-7-4-3-1-6-2-8-2z"/>
<glyph glyph-name="devices" unicode="&#45;" d="M75 85c-9 0-17 3-23 10-6 6-9 13-9 22 0 9 3 17 9 23 6 6 14 9 23 9l10 0 0 235c0 12 5 22 13 30 8 8 18 13 30 13l299 0c6 0 11-2 15-6 4-5 6-10 6-16 0-6-2-11-6-15-4-4-9-6-15-6l-299 0 0-235 96 0c9 0 16-3 23-9 6-6 9-14 9-23 0-9-3-16-9-22-7-7-14-10-23-10z m245 0c-6 0-11 2-15 6-4 5-6 10-6 16l0 213c0 6 2 11 6 15 4 4 9 6 15 6l128 0c6 0 11-2 15-6 4-4 6-9 6-15l0-213c0-6-2-11-6-16-4-4-9-6-15-6z"/>
<glyph glyph-name="devices-fold" unicode="&#46;" d="M256 64c-12 0-22 4-30 13-8 8-13 18-13 30l0 314c0 8 3 16 7 23 5 7 11 12 19 16l64 27c14 7 28 5 40-3 13-8 20-20 20-36l64 0c11 0 21-4 30-13 8-8 12-18 12-30l0-298c0-12-4-22-12-30-9-9-19-13-30-13z m57 43l114 0 0 298-64 0 0-249c0-8-3-16-7-23-5-8-11-13-19-16z m-249 298c-6 0-11 2-15 6-4 5-6 10-6 16 0 6 2 11 6 15 4 4 9 6 15 6 6 0 11-2 15-6 4-4 6-9 6-15 0-6-2-11-6-16-4-4-9-6-15-6z m0-85c-6 0-11 2-15 6-4 4-6 9-6 15 0 6 2 11 6 16 4 4 9 6 15 6 6 0 11-2 15-6 4-5 6-10 6-16 0-6-2-11-6-15-4-4-9-6-15-6z m-21-64c0 6 2 11 6 15 4 4 9 6 15 6 6 0 11-2 15-6 4-4 6-9 6-15 0-6-2-11-6-15-4-4-9-6-15-6-6 0-11 2-15 6-4 4-6 9-6 15z m21-107c-6 0-11 2-15 6-4 5-6 10-6 16 0 6 2 11 6 15 4 4 9 6 15 6 6 0 11-2 15-6 4-4 6-9 6-15 0-6-2-11-6-16-4-4-9-6-15-6z m0-85c-6 0-11 2-15 6-4 4-6 9-6 15 0 6 2 11 6 16 4 4 9 6 15 6 6 0 11-2 15-6 4-5 6-10 6-16 0-6-2-11-6-15-4-4-9-6-15-6z m85 0c-6 0-11 2-15 6-4 4-6 9-6 15 0 6 2 11 6 16 4 4 9 6 15 6 6 0 11-2 16-6 4-5 6-10 6-16 0-6-2-11-6-15-5-4-10-6-16-6z m0 341c-6 0-11 2-15 6-4 5-6 10-6 16 0 6 2 11 6 15 4 4 9 6 15 6 6 0 11-2 16-6 4-4 6-9 6-15 0-6-2-11-6-16-5-4-10-6-16-6z"/>
<glyph glyph-name="directions-boat-filled" unicode="&#47;" d="M84 107l-40 143c-1 4-1 9 1 15 2 5 6 9 13 11l27 10 0 98c0 12 5 22 13 30 8 8 18 13 30 13l64 0 0 42c0 6 2 11 6 16 4 4 9 6 15 6l86 0c6 0 11-2 15-6 4-5 6-10 6-16l0-42 64 0c12 0 22-5 30-13 8-8 13-18 13-30l0-98 27-10c8-3 12-7 14-12 1-6 1-10 0-14l-40-143c-14 0-28 2-40 8-12 5-23 12-33 21-4 4-8 6-14 6-5 0-10-2-14-6-9-9-21-16-33-21-12-6-24-8-38-8-4 0-7 0-10 0-3 1-7 1-10 2-10 2-20 6-29 11-9 5-18 12-26 19-3 3-6 4-11 4-4 0-8-1-11-4-9-10-21-18-34-24-13-5-27-8-41-8z m172-86c-15 0-29 2-43 6-15 3-29 9-42 16-14-7-28-13-42-16-14-4-29-6-44-6l-21 0c-6 0-11 2-15 6-4 5-6 10-6 16 0 6 2 11 6 15 4 4 9 6 15 6l21 0c13 0 26 2 39 5 13 4 24 9 35 16 4 2 8 3 12 3 4 0 7-1 11-3 8-5 17-9 27-12 10-4 20-6 29-7 3 0 6 0 9-1 3 0 6 0 9 0 13 0 26 2 38 5 13 3 25 8 36 15 4 2 7 3 11 3 4 0 8-1 12-3 11-7 22-13 35-16 13-3 26-5 39-5l21 0c6 0 11-2 15-6 4-4 6-9 6-15 0-6-2-11-6-16-4-4-9-6-15-6l-21 0c-15 0-30 2-44 6-14 3-28 9-42 16-13-7-27-13-42-16-14-4-28-6-43-6z m-128 279l115 37c4 1 8 2 13 2 5 0 9-1 13-2l115-37 0 84-256 0z"/>
<glyph glyph-name="directions-run" unicode="&#58;" d="M277 43l0 106-44 43-17-74c-1-5-5-10-9-13-5-3-10-4-16-3l-106 22c-6 1-10 4-14 9-3 5-4 10-3 16 1 6 4 11 9 14 5 4 11 5 17 3l81-17 34 173-38-15 0-51c0-6-2-11-6-15-5-4-10-6-16-6-6 0-11 2-15 6-4 4-6 9-6 15l0 65c0 4 1 8 3 12 3 3 6 5 10 7l71 31c13 6 22 9 28 11 6 1 11 2 16 2 7 0 14-2 21-6 6-4 11-9 15-15l22-34c7-13 17-23 29-32 12-9 25-15 41-18 6-1 11-3 15-8 4-4 6-9 6-15 0-6-2-11-6-15-4-4-9-5-14-5-20 3-38 9-54 18-17 9-31 20-43 34l-13-64 39-36c2-2 3-5 4-7 1-3 2-6 2-9l0-129c0-6-2-11-6-16-4-4-9-6-15-6-6 0-11 2-16 6-4 5-6 10-6 16z m11 352c-12 0-22 4-30 12-8 9-13 19-13 30 0 12 5 22 13 30 8 9 18 13 30 13 12 0 22-4 30-13 8-8 13-18 13-30 0-11-5-21-13-30-8-8-18-12-30-12z"/>
<glyph glyph-name="diversity-1" unicode="&#59;" d="M20 228c-6 13-11 26-15 39-3 13-5 27-5 40 0 40 14 73 41 100 27 27 60 41 100 41 22 0 44-5 64-14 20-10 37-23 51-39 14 16 31 29 51 39 20 9 42 14 64 14 40 0 73-14 100-41 27-27 41-60 41-100 0-13-2-27-5-40-4-13-9-26-15-39-4 7-9 13-14 18-5 6-12 10-19 13 3 8 6 16 8 24 1 8 2 16 2 24 0 28-9 51-28 70-19 19-42 28-70 28-29 0-51-8-66-23-16-16-32-34-49-53-17 19-33 37-49 53-15 16-37 23-66 23-28 0-51-9-70-28-19-19-28-42-28-70 0-8 1-16 2-24 2-8 5-16 8-24-7-3-14-7-19-13-5-5-10-11-14-18z m-20-164l0 12c0 16 8 28 24 38 16 9 36 14 61 14 5 0 9 0 14 0 4 0 8-1 12-2-5-7-9-14-11-23-3-8-4-16-4-26l0-34-75 0c-6 0-11 2-15 6-4 4-6 9-6 15z m128 0l0 13c0 23 12 42 35 56 24 15 55 22 93 22 38 0 69-7 93-22 23-14 35-33 35-56l0-13c0-6-2-11-6-15-4-4-9-6-15-6l-214 0c-6 0-11 2-15 6-4 4-6 9-6 15z m288-21l0 34c0 10-1 18-3 26-3 9-6 16-11 23 4 1 8 2 12 2 4 0 8 0 13 0 25 0 46-5 62-14 15-10 23-22 23-38l0-12c0-6-2-11-6-15-4-4-9-6-15-6z m-331 106c-11 0-21 5-30 13-8 8-12 18-12 30 0 12 4 22 12 30 9 9 19 13 30 13 12 0 23-4 31-13 8-8 12-18 12-30 0-12-4-22-12-30-8-8-19-13-31-13z m342 0c-12 0-22 5-30 13-9 8-13 18-13 30 0 12 4 22 13 30 8 9 18 13 30 13 12 0 22-4 30-13 8-8 12-18 12-30 0-12-4-22-12-30-8-8-18-13-30-13z m-171 22c-18 0-33 6-45 18-13 13-19 28-19 46 0 18 6 33 19 45 12 13 27 19 45 19 18 0 33-6 46-19 12-12 18-27 18-45 0-18-6-33-18-46-13-12-28-18-46-18z"/>
<glyph glyph-name="diversity-2" unicode="&#60;" d="M187 34c-17 0-31 4-44 12-13 9-23 21-30 36-6-8-13-14-22-18-9-4-18-6-27-6-18 0-33 6-46 19-12 12-18 27-18 45 0 15 5 29 15 41 10 13 23 20 38 22-5 7-9 14-12 22-2 8-4 17-4 26 0 14 4 27 11 40 8 12 18 22 31 30 2-6 4-13 7-21 3-7 7-13 11-19-5-3-9-8-12-14-3-5-4-11-4-17 0-20 8-32 24-37 16-4 32-8 46-11l11-17c-4-11-8-21-11-29-2-8-4-15-4-22 0-10 4-20 12-28 7-8 17-12 28-12 11 0 21 5 29 13 8 9 15 20 21 33 5 13 9 27 13 41 3 15 6 28 8 40 1 6 4 10 9 14 5 3 11 4 16 2 6-2 11-5 14-10 3-6 4-11 2-18-3-16-7-33-12-52-5-18-12-35-20-51-8-16-19-29-32-39-13-10-29-15-48-15z m44 167c-5-5-10-7-17-7-6 1-12 4-17 8-28 25-49 48-66 68-16 20-24 42-24 65 0 24 8 43 23 59 16 16 36 24 59 24 1 0 2 0 4-1 1 0 2 0 3 0-1 4-2 7-3 11-1 3-1 7-1 11 0 18 6 33 19 45 12 13 27 19 45 19 18 0 33-6 45-19 13-12 19-27 19-45 0-4 0-8-1-11-1-3-2-7-3-10l7 0c22 0 40-7 55-21 15-14 23-31 26-51-6 1-13 2-21 2-8 0-16-1-22-1-3 8-7 15-14 20-7 5-15 8-24 8-12 0-22-4-29-11-7-7-16-18-28-32l-20 0c-13 15-22 26-29 33-7 6-16 10-28 10-12 0-21-4-28-11-8-8-12-17-12-29 0-14 7-30 21-46 14-16 33-35 57-57 5-4 8-10 9-16 1-6-1-11-5-15z m94-167c-8 0-16 1-23 3-8 2-15 5-23 10 4 5 8 11 12 18 4 6 8 13 11 18 4-2 8-4 12-5 4-1 7-2 11-2 12 0 21 4 29 12 8 8 11 18 11 29 0 7-1 14-4 22-3 7-6 17-10 28l10 18c15 2 31 6 47 11 16 4 24 17 24 37 0 14-5 24-16 30-10 7-22 10-34 10-13 0-27-2-43-6-17-5-35-10-56-17-6-2-12-1-18 1-6 2-9 6-11 12-2 7-1 12 3 18 3 5 8 8 14 10 22 7 43 13 61 18 18 4 35 7 50 7 25 0 46-8 65-22 18-15 28-35 28-61 0-9-2-18-4-26-3-8-7-15-12-22 15-2 28-9 38-22 10-12 15-26 15-41 0-18-6-33-18-45-13-13-28-19-46-19-9 0-18 2-27 6-9 4-16 10-22 18-7-15-17-27-30-36-13-8-27-12-44-12z"/>
<glyph glyph-name="diversity-3" unicode="&#61;" d="M21 107l0 64c0 12 5 22 13 30 8 8 18 12 30 12l70 0c7 0 14-1 20-5 7-4 12-8 16-14 10-14 23-25 38-33 15-8 31-12 48-12 17 0 34 4 49 12 15 8 27 19 37 33 5 6 10 10 17 14 6 4 12 5 19 5l70 0c12 0 22-4 30-12 9-8 13-18 13-30l0-64c0-6-2-11-6-16-5-4-10-6-16-6l-106 0c-6 0-11 2-16 6-4 5-6 10-6 16l0 27c-12-9-26-16-40-20-14-5-29-7-45-7-15 0-30 2-45 7-14 5-28 12-40 20l0-27c0-6-2-11-6-16-5-4-10-6-16-6l-106 0c-6 0-11 2-16 6-4 5-6 10-6 16z m235 64c-14 0-26 3-38 9-12 6-23 15-31 26-6 9-13 16-22 21-10 5-19 8-30 8 8 13 24 23 50 31 25 8 49 11 71 11 22 0 46-3 71-11 26-8 42-18 50-31-10 0-20-3-29-8-10-5-17-12-23-21-8-12-18-20-30-26-12-6-25-9-39-9z m-171 64c-17 0-33 6-45 18-12 13-19 28-19 46 0 18 7 33 19 45 12 13 28 19 45 19 18 0 34-6 46-19 12-12 18-27 18-45 0-18-6-33-18-46-12-12-28-18-46-18z m342 0c-18 0-33 6-46 18-12 13-18 28-18 46 0 18 6 33 18 45 13 13 28 19 46 19 18 0 33-6 45-19 13-12 19-27 19-45 0-18-6-33-19-46-12-12-27-18-45-18z m-171 64c-18 0-33 6-45 18-13 13-19 28-19 46 0 18 6 33 19 45 12 13 27 19 45 19 18 0 33-6 46-19 12-12 18-27 18-45 0-18-6-33-18-46-13-12-28-18-46-18z"/>
<glyph glyph-name="dns" unicode="&#62;" d="M160 384c-9 0-16-3-23-9-6-7-9-14-9-23 0-9 3-16 9-23 7-6 14-9 23-9 9 0 16 3 23 9 6 7 9 14 9 23 0 9-3 16-9 23-7 6-14 9-23 9z m0-213c-9 0-16-3-23-10-6-6-9-13-9-22 0-9 3-17 9-23 7-6 14-9 23-9 9 0 16 3 23 9 6 6 9 14 9 23 0 9-3 16-9 22-7 7-14 10-23 10z m-75 277l342 0c6 0 11-2 15-6 4-4 6-9 6-15l0-150c0-6-2-11-6-15-4-4-9-6-15-6l-342 0c-6 0-11 2-15 6-4 4-6 9-6 15l0 150c0 6 2 11 6 15 4 4 9 6 15 6z m0-213l342 0c6 0 11-2 15-6 4-5 6-10 6-16l0-149c0-6-2-11-6-15-4-4-9-6-15-6l-342 0c-6 0-11 2-15 6-4 4-6 9-6 15l0 149c0 6 2 11 6 16 4 4 9 6 15 6z"/>
<glyph glyph-name="document-scanner" unicode="&#63;" d="M43 405l0 43c0 12 4 22 12 30 9 8 19 13 30 13l43 0c6 0 11-2 15-6 4-5 6-10 6-16 0-6-2-11-6-15-4-4-9-6-15-6l-43 0 0-43c0-6-2-11-6-15-4-4-9-6-15-6-6 0-11 2-15 6-4 4-6 9-6 15z m384 0l0 43-43 0c-6 0-11 2-15 6-4 4-6 9-6 15 0 6 2 11 6 16 4 4 9 6 15 6l43 0c11 0 21-5 30-13 8-8 12-18 12-30l0-43c0-6-2-11-6-15-4-4-9-6-15-6-6 0-11 2-15 6-4 4-6 9-6 15z m-384-341l0 43c0 6 2 11 6 15 4 4 9 6 15 6 6 0 11-2 15-6 4-4 6-9 6-15l0-43 43 0c6 0 11-2 15-6 4-4 6-9 6-15 0-6-2-11-6-16-4-4-9-6-15-6l-43 0c-11 0-21 5-30 13-8 8-12 18-12 30z m384-43l-43 0c-6 0-11 2-15 6-4 5-6 10-6 16 0 6 2 11 6 15 4 4 9 6 15 6l43 0 0 43c0 6 2 11 6 15 4 4 9 6 15 6 6 0 11-2 15-6 4-4 6-9 6-15l0-43c0-12-4-22-12-30-9-8-19-13-30-13z m-278 64c-11 0-21 5-30 13-8 8-12 18-12 30l0 256c0 12 4 22 12 30 9 8 19 13 30 13l214 0c11 0 21-5 30-13 8-8 12-18 12-30l0-256c0-12-4-22-12-30-9-8-19-13-30-13z m64 214l86 0c6 0 11 2 15 6 4 4 6 9 6 15 0 6-2 11-6 15-4 4-9 6-15 6l-86 0c-6 0-11-2-15-6-4-4-6-9-6-15 0-6 2-11 6-15 4-4 9-6 15-6z m0-64l86 0c6 0 11 2 15 6 4 4 6 9 6 15 0 6-2 11-6 15-4 4-9 6-15 6l-86 0c-6 0-11-2-15-6-4-4-6-9-6-15 0-6 2-11 6-15 4-4 9-6 15-6z m0-64l86 0c6 0 11 2 15 6 4 4 6 9 6 15 0 6-2 11-6 15-4 4-9 6-15 6l-86 0c-6 0-11-2-15-6-4-4-6-9-6-15 0-6 2-11 6-15 4-4 9-6 15-6z"/>
<glyph glyph-name="done" unicode="&#64;" d="M204 189l181 181c4 4 9 6 15 6 6 0 11-2 15-6 4-5 6-10 6-16 0-5-2-11-6-15l-196-196c-5-4-10-6-15-6-6 0-11 2-15 6l-92 92c-4 4-6 9-6 15 0 6 2 11 7 15 4 4 9 6 15 6 6 0 11-2 15-6z"/>
<glyph glyph-name="download-for-offline" unicode="&#91;" d="M171 149l170 0c6 0 11 2 16 6 4 5 6 10 6 16 0 6-2 11-6 15-5 4-10 6-16 6l-170 0c-6 0-11-2-16-6-4-4-6-9-6-15 0-6 2-11 6-16 5-4 10-6 16-6z m64 146l-20 19c-3 4-8 6-14 6-6 0-11-2-15-6-4-4-6-9-6-15 0-6 2-11 6-15l55-56c4-4 9-6 15-6 6 0 11 2 15 6l55 56c4 4 6 9 7 14 0 6-2 11-7 16-4 4-8 6-14 6-6 0-11-2-15-6l-20-19 0 68c0 6-2 11-6 15-4 4-9 6-15 6-6 0-11-2-15-6-4-4-6-9-6-15z m21-252c-30 0-57 5-83 16-26 12-49 27-68 46-19 19-34 42-46 68-11 26-16 53-16 83 0 30 5 57 16 83 12 26 27 49 46 68 19 19 42 34 68 46 26 11 53 16 83 16 30 0 57-5 83-16 26-12 49-27 68-46 19-19 34-42 46-68 11-26 16-53 16-83 0-30-5-57-16-83-12-26-27-49-46-68-19-19-42-34-68-46-26-11-53-16-83-16z"/>
<glyph glyph-name="draw" unicode="&#93;" d="M107 64c-6 0-11 2-16 6-4 4-6 9-6 15l0 52c0 6 1 11 4 16 2 5 5 10 9 14l268 268c5 4 9 8 15 10 5 2 10 3 16 3 5 0 11-1 16-3 5-2 10-6 14-10l30-30c4-4 7-8 9-13 2-5 3-11 3-17 0-5-1-10-3-16-2-5-5-10-9-14l-269-269c-4-4-8-7-13-9-5-2-11-3-17-3z m291 282l29 29-31 30-29-28z m-99-282c26 0 50 7 73 20 22 13 33 31 33 55 0 12-3 23-10 33-7 9-16 17-27 24l-31-32c8-3 14-7 19-11 4-5 7-9 7-14 0-9-7-16-20-22-13-7-28-10-44-10-6 0-11-2-16-6-4-5-6-10-6-16 0-6 2-11 6-15 5-4 10-6 16-6z m-201 163l32 32c-8 3-13 6-17 9-4 3-6 6-6 9 0 5 3 9 9 13 7 4 20 11 41 20 31 13 52 26 62 37 11 11 16 23 16 37 0 20-8 35-24 47-15 11-36 17-62 17-16 0-30-3-43-9-12-5-22-12-29-20-4-5-5-10-4-16 0-5 3-10 8-14 4-4 9-5 15-4 6 0 10 3 14 6 5 5 11 9 17 11 6 2 13 3 22 3 15 0 26-2 33-6 7-4 10-9 10-15 0-5-3-10-9-14-7-4-21-11-43-21-29-13-48-24-59-34-11-10-17-23-17-38 0-11 3-21 9-29 6-8 14-15 25-21z"/>
<glyph glyph-name="drive-file-move" unicode="&#94;" d="M85 85c-11 0-21 5-30 13-8 8-12 18-12 30l0 256c0 12 4 22 12 30 9 8 19 13 30 13l111 0c5 0 11-1 16-4 5-2 10-5 14-9l30-30 171 0c11 0 21-4 30-13 8-8 12-18 12-30l0-213c0-12-4-22-12-30-9-8-19-13-30-13z m175 128l-19-19c-4-4-6-9-6-15 0-6 2-11 6-15 3-4 8-6 14-6 7 0 11 2 15 6l56 56c5 4 7 9 7 15 0 5-2 10-7 15l-56 56c-4 4-8 5-15 5-6 0-11-1-14-5-4-4-6-9-6-15 0-6 2-11 6-15l19-20-68 0c-6 0-11-2-15-6-4-4-6-9-6-15 0-6 2-11 6-16 4-4 9-6 15-6z"/>
<glyph glyph-name="drive-folder-upload" unicode="&#95;" d="M85 85c-11 0-21 5-30 13-8 8-12 18-12 30l0 256c0 12 4 22 12 30 9 8 19 13 30 13l111 0c5 0 11-1 16-4 5-2 10-5 14-9l30-30 171 0c11 0 21-4 30-13 8-8 12-18 12-30l0-213c0-12-4-22-12-30-9-8-19-13-30-13z m171 64c6 0 11 2 15 6 4 5 6 10 6 16l0 68 20-19c3-4 8-6 14-6 7 0 11 2 15 6 4 4 6 9 6 15 0 6-2 11-6 15l-55 55c-4 4-9 6-15 6-6 0-11-2-15-6l-55-55c-4-4-6-9-6-15 0-6 2-11 6-15 4-4 8-6 15-6 6 0 11 2 14 6l20 19 0-68c0-6 2-11 6-16 4-4 9-6 15-6z"/>
<glyph glyph-name="dynamic-feed" unicode="&#96;" d="M85 64c-11 0-21 4-30 13-8 8-12 18-12 30l0 128c0 6 2 11 6 15 4 4 9 6 15 6 6 0 11-2 15-6 4-4 6-9 6-15l0-128 171 0c6 0 11-2 15-6 4-5 6-10 6-16 0-6-2-11-6-15-4-4-9-6-15-6z m86 85c-12 0-22 5-30 13-9 8-13 18-13 30l0 128c0 6 2 11 6 15 4 4 9 6 15 6 6 0 11-2 16-6 4-4 6-9 6-15l0-128 170 0c6 0 11-2 16-6 4-4 6-9 6-15 0-6-2-11-6-16-5-4-10-6-16-6z m85 86c-12 0-22 4-30 12-8 9-13 19-13 30l0 128c0 12 5 22 13 30 8 9 18 13 30 13l171 0c11 0 21-4 30-13 8-8 12-18 12-30l0-128c0-11-4-21-12-30-9-8-19-12-30-12z m0 42l171 0 0 86-171 0z"/>
<glyph glyph-name="earbuds" unicode="&#123;" d="M171 64c-30 0-55 10-76 31-21 21-31 46-31 76l0 209c0 19 6 35 18 48 11 13 27 20 46 20 19 0 35-6 46-18 12-11 18-27 18-46 0-18-6-33-18-46-13-12-28-18-46-18l-21 0 0-149c0-18 6-33 18-46 13-12 28-18 46-18 17 0 33 6 45 18 12 13 19 28 19 46l0 170c0 30 10 55 31 76 21 21 46 31 75 31 30 0 55-10 76-31 21-21 31-46 31-76l0-213c0-18-7-33-21-46-13-12-29-18-47-18-18 0-33 6-44 18-11 13-16 28-16 46 0 18 6 33 18 46 13 12 28 18 46 18l21 0 0 149c0 18-6 33-18 46-13 12-28 18-46 18-17 0-33-6-45-18-12-13-19-28-19-46l0-170c0-30-10-55-31-76-21-21-46-31-75-31z"/>
<glyph glyph-name="eco" unicode="&#124;" d="M240 43c-12 0-24 1-35 4-12 2-25 6-37 11 4 43 17 83 37 121 21 37 47 70 80 98-39-20-73-46-102-79-28-32-48-70-60-112-1 1-3 3-4 4l-4 4c-17 17-29 35-38 56-9 20-13 42-13 64 0 25 5 48 14 70 10 22 23 41 40 58 29 29 67 48 112 57 46 8 111 9 193 2 7-85 6-150-3-194-8-45-27-81-55-110-18-17-37-31-59-40-21-10-43-14-66-14z"/>
<glyph glyph-name="edit" unicode="&#125;" d="M85 64c-6 0-11 2-15 6-4 4-6 9-6 15l0 52c0 6 1 11 3 16 2 5 5 10 9 14l270 269c4 4 9 7 14 9 5 2 10 3 16 3 6 0 11-1 17-3 5-2 9-6 13-10l30-30c4-4 7-8 9-14 2-5 3-10 3-16 0-5-1-11-3-16-2-5-5-10-9-14l-269-269c-4-4-9-7-14-9-5-2-10-3-16-3z m290 282l30 29-30 30-29-30z"/>
<glyph glyph-name="edit-note" unicode="&#126;" d="M107 213c-6 0-11 2-16 6-4 5-6 10-6 16 0 6 2 11 6 15 5 4 10 6 16 6l106 0c6 0 11-2 16-6 4-4 6-9 6-15 0-6-2-11-6-16-5-4-10-6-16-6z m0 86c-6 0-11 2-16 6-4 4-6 9-6 15 0 6 2 11 6 15 5 4 10 6 16 6l192 0c6 0 11-2 15-6 4-4 6-9 6-15 0-6-2-11-6-15-4-4-9-6-15-6z m0 85c-6 0-11 2-16 6-4 4-6 9-6 15 0 6 2 11 6 16 5 4 10 6 16 6l192 0c6 0 11-2 15-6 4-5 6-10 6-16 0-6-2-11-6-15-4-4-9-6-15-6z m170-277l0 35c0 3 1 5 2 8 1 3 3 5 5 7l111 111c3 3 7 6 11 7 4 2 8 2 12 2 4 0 8 0 12-2 4-2 7-4 11-7l19-20c3-3 5-7 7-11 2-4 2-7 2-11 0-4 0-8-2-12-1-4-4-8-7-11l-111-111c-2-2-4-4-7-5-3-1-5-2-8-2l-35 0c-6 0-11 2-16 6-4 5-6 10-6 16z m141 98l19 21-19 19-21-20z m-109-88l21 0 64 65-9 11-11 9-65-64z m0 0l0 21 65 64 20-20-64-65z"/>
<glyph glyph-name="elevator" unicode="&#92;" d="M149 213l0-64c0-6 2-11 6-15 5-4 10-6 16-6l21 0c6 0 11 2 15 6 4 4 6 9 6 15l0 64c4 4 9 7 14 10 5 2 8 6 8 12l0 32c0 11-5 21-13 30-8 8-18 12-30 12l-21 0c-12 0-22-4-30-12-9-9-13-19-13-30l0-32c0-6 3-10 8-12 5-3 9-6 13-10z m32 118c8 0 14 2 19 7 5 6 8 12 8 19 0 8-3 14-8 19-5 5-11 8-19 8-7 0-13-3-19-8-5-5-7-11-7-19 0-7 2-13 7-19 6-5 12-7 19-7z m116-54l68 0c4 0 7 2 9 6 2 4 2 7 0 11l-34 54c-2 4-5 6-9 6-4 0-7-2-9-6l-35-54c-2-4-2-7 0-11 2-4 5-6 10-6z m43-113l34 54c2 4 2 7 0 11-2 4-5 6-9 6l-68 0c-5 0-8-2-10-6-2-4-2-7 0-11l35-54c2-4 5-6 9-6 4 0 7 2 9 6z m-233-100c-12 0-22 4-30 13-9 8-13 18-13 30l0 298c0 12 4 22 13 30 8 9 18 13 30 13l298 0c12 0 22-4 30-13 9-8 13-18 13-30l0-298c0-12-4-22-13-30-8-9-18-13-30-13z"/>
<glyph glyph-name="email" unicode="&#57344;" d="M85 85c-11 0-21 5-30 13-8 8-12 18-12 30l0 256c0 12 4 22 12 30 9 8 19 13 30 13l342 0c11 0 21-5 30-13 8-8 12-18 12-30l0-256c0-12-4-22-12-30-9-8-19-13-30-13z m171 153c2 0 4 1 6 1 2 1 3 2 5 3l151 94c3 2 5 4 7 7 1 2 2 5 2 8 0 8-3 13-9 16-6 4-13 4-19 0l-143-90-143 90c-6 4-13 4-19 0-6-4-9-9-9-16 0-3 1-6 2-9 2-3 4-5 7-6l151-94c2-1 3-2 5-3 2 0 4-1 6-1z"/>
<glyph glyph-name="emoji-emotions" unicode="&#57345;" d="M331 277c9 0 16 3 22 10 7 6 10 13 10 22 0 9-3 17-10 23-6 6-13 9-22 9-9 0-17-3-23-9-6-6-9-14-9-23 0-9 3-16 9-22 6-7 14-10 23-10z m-150 0c9 0 17 3 23 10 6 6 9 13 9 22 0 9-3 17-9 23-6 6-14 9-23 9-9 0-16-3-22-9-7-6-10-14-10-23 0-9 3-16 10-22 6-7 13-10 22-10z m75-234c-30 0-57 5-83 16-26 12-49 27-68 46-19 19-34 42-46 68-11 26-16 53-16 83 0 30 5 57 16 83 12 26 27 49 46 68 19 19 42 34 68 46 26 11 53 16 83 16 30 0 57-5 83-16 26-12 49-27 68-46 19-19 34-42 46-68 11-26 16-53 16-83 0-30-5-57-16-83-12-26-27-49-46-68-19-19-42-34-68-46-26-11-53-16-83-16z m0 96c21 0 40 5 57 15 17 10 32 23 42 40 2 4 2 9 0 13-3 4-7 6-12 6l-174 0c-5 0-9-2-12-6-2-4-2-9 0-13 10-17 25-30 42-40 18-10 37-15 57-15z"/>
<glyph glyph-name="energy-savings-leaf" unicode="&#57346;" d="M231 164l98 87c3 3 4 6 3 10-2 4-5 7-9 7l-77 8 46 63c1 2 2 4 2 5 0 2 0 3-2 5-1 2-3 2-5 2-2 0-4-1-6-2l-98-88c-3-3-4-6-2-10 1-4 4-6 8-7l77-7-46-64c-1-1-2-3-2-5 0-1 1-3 2-4 2-2 3-2 5-2 2 0 4 0 6 2z m25-79c-20 0-39 3-56 10-18 6-34 15-49 26l-29-29c-2-2-4-4-7-5-3-1-5-2-8-2-6 0-11 2-16 6-4 5-6 10-6 16 0 3 1 5 2 8 1 3 3 5 5 7l29 29c-11 15-20 31-26 49-7 17-10 36-10 56 0 48 17 88 50 121 33 33 73 50 121 50l128 0c12 0 22-5 30-13 8-8 13-18 13-30l0-128c0-48-17-88-50-121-33-33-73-50-121-50z"/>
<glyph glyph-name="explore" unicode="&#57347;" d="M256 235c-6 0-11 2-15 6-4 4-6 9-6 15 0 6 2 11 6 15 4 4 9 6 15 6 6 0 11-2 15-6 4-4 6-9 6-15 0-6-2-11-6-15-4-4-9-6-15-6z m0-192c-30 0-57 5-83 16-26 12-49 27-68 46-19 19-34 42-46 68-11 26-16 53-16 83 0 30 5 57 16 83 12 26 27 49 46 68 19 19 42 34 68 46 26 11 53 16 83 16 30 0 57-5 83-16 26-12 49-27 68-46 19-19 34-42 46-68 11-26 16-53 16-83 0-30-5-57-16-83-12-26-27-49-46-68-19-19-42-34-68-46-26-11-53-16-83-16z m0 42c48 0 88 17 121 50 33 33 50 73 50 121 0 48-17 88-50 121-33 33-73 50-121 50-48 0-88-17-121-50-33-33-50-73-50-121 0-48 17-88 50-121 33-33 73-50 121-50z m0 0c-48 0-88 17-121 50-33 33-50 73-50 121 0 48 17 88 50 121 33 33 73 50 121 50 48 0 88-17 121-50 33-33 50-73 50-121 0-48-17-88-50-121-33-33-73-50-121-50z m36 125c2 1 4 3 6 4 1 2 3 4 4 6l62 134c2 3 2 6-1 9-3 3-6 3-9 1l-134-62c-2-1-4-3-6-4-1-2-3-4-4-6l-62-134c-2-3-2-6 1-9 3-3 6-3 9-1z"/>
<glyph glyph-name="exposure-plus-1" unicode="&#57348;" d="M128 213l-43 0c-6 0-11 2-15 6-4 5-6 10-6 16 0 6 2 11 6 15 4 4 9 6 15 6l43 0 0 43c0 6 2 11 6 15 4 4 9 6 15 6 6 0 11-2 16-6 4-4 6-9 6-15l0-43 42 0c6 0 11-2 16-6 4-4 6-9 6-15 0-6-2-11-6-16-5-4-10-6-16-6l-42 0 0-42c0-6-2-11-6-16-5-4-10-6-16-6-6 0-11 2-15 6-4 5-6 10-6 16z m208 127l-30-22c-5-4-11-5-17-4-6 2-11 5-15 10-3 5-4 11-3 17 1 5 4 10 9 14l66 47c1 1 3 2 4 3 2 0 3 0 5 0l12 0c5 0 9-1 12-4 3-4 5-8 5-13l0-257c0-7-2-13-7-17-5-5-10-7-17-7-7 0-12 2-17 7-5 4-7 10-7 17z"/>
<glyph glyph-name="fast-forward" unicode="&#57349;" d="M53 168l0 176c0 6 2 12 7 15 4 4 9 6 15 6 1 0 3 0 6 0 2-1 4-1 5-3l133-88c3-3 5-5 7-8 1-3 2-6 2-10 0-4-1-7-2-10-2-3-4-5-7-8l-133-88c-1-2-3-2-5-3-3 0-5 0-6 0-6 0-11 2-15 6-5 3-7 9-7 15z m214 0l0 176c0 6 2 12 6 15 4 4 9 6 15 6 2 0 4 0 6 0 2-1 4-1 6-3l132-88c3-3 6-5 7-8 2-3 3-6 3-10 0-4-1-7-3-10-1-3-4-5-7-8l-132-88c-2-2-4-2-6-3-2 0-4 0-6 0-6 0-11 2-15 6-4 3-6 9-6 15z"/>
<glyph glyph-name="favorite" unicode="&#57350;" d="M256 78c-5 0-10 1-15 3-5 2-10 5-14 9l-37 33c-37 35-71 69-102 103-30 34-45 71-45 112 0 34 11 61 33 84 23 22 51 33 84 33 19 0 37-4 53-12 17-8 31-18 43-32 12 14 26 24 43 32 16 8 34 12 53 12 33 0 61-11 84-33 22-23 33-50 33-84 0-41-15-78-45-112-30-35-65-69-103-103l-36-33c-4-4-9-7-14-9-5-2-10-3-15-3z"/>
<glyph glyph-name="featured-video" unicode="&#57351;" d="M128 213l149 0c6 0 11 2 16 6 4 5 6 10 6 16l0 106c0 6-2 11-6 16-5 4-10 6-16 6l-149 0c-6 0-11-2-15-6-4-5-6-10-6-16l0-106c0-6 2-11 6-16 4-4 9-6 15-6z m-43-128c-11 0-21 5-30 13-8 8-12 18-12 30l0 256c0 12 4 22 12 30 9 8 19 13 30 13l342 0c11 0 21-5 30-13 8-8 12-18 12-30l0-256c0-12-4-22-12-30-9-8-19-13-30-13z"/>
<glyph glyph-name="feed" unicode="&#57352;" d="M107 64c-12 0-22 4-30 13-9 8-13 18-13 30l0 298c0 12 4 22 13 30 8 9 18 13 30 13l217 0c5 0 11-1 16-3 5-2 10-5 14-9l82-82c4-4 7-9 9-14 2-5 3-11 3-16l0-217c0-12-4-22-13-30-8-9-18-13-30-13z m213 341l0-64c0-6 2-11 6-15 4-4 9-6 15-6l64 0z m21-256c6 0 11 2 16 6 4 5 6 10 6 16 0 6-2 11-6 15-5 4-10 6-16 6l-170 0c-6 0-11-2-16-6-4-4-6-9-6-15 0-6 2-11 6-16 5-4 10-6 16-6z m-106 171c6 0 11 2 15 6 4 4 6 9 6 15 0 6-2 11-6 16-4 4-9 6-15 6l-64 0c-6 0-11-2-16-6-4-5-6-10-6-16 0-6 2-11 6-15 5-4 10-6 16-6z m106-85c6 0 11 2 16 6 4 4 6 9 6 15 0 6-2 11-6 15-5 4-10 6-16 6l-170 0c-6 0-11-2-16-6-4-4-6-9-6-15 0-6 2-11 6-15 5-4 10-6 16-6z"/>
<glyph glyph-name="filter-alt" unicode="&#57353;" d="M235 85c-6 0-11 2-16 6-4 5-6 10-6 16l0 128-123 158c-6 7-7 14-3 22 4 8 10 12 20 12l298 0c10 0 16-4 20-12 4-8 3-15-3-22l-123-158 0-128c0-6-2-11-6-16-5-4-10-6-16-6z"/>
<glyph glyph-name="fitness-center" unicode="&#57354;" d="M150 332l-60-61c-4-4-9-6-15-6-6 0-11 2-15 6-4 4-6 9-6 15-1 5 1 11 5 15l16 16-15 15c-5 4-7 9-7 15 0 5 2 10 7 15l30 29-16 16c-4 4-6 9-6 15 0 6 2 11 7 15 4 4 8 6 14 6 6 1 11-1 16-5l16-16 29 30c5 5 10 7 15 7 6 0 11-2 15-7l15-15 16 16c4 4 9 6 15 6 6 0 11-2 15-7 4-4 6-9 6-15 0-6-2-11-6-15l-61-60 182-182 60 61c4 4 9 6 15 6 6 0 11-2 15-6 4-4 6-9 6-15 1-5-1-11-5-15l-16-16 15-15c5-4 7-9 7-15 0-5-2-10-7-15l-30-29 16-16c4-4 6-9 6-15 0-6-2-11-7-15-4-4-8-6-14-6-6-1-11 1-16 5l-16 16-29-30c-5-5-10-7-15-7-6 0-11 2-15 7l-15 15-16-16c-4-4-9-6-15-6-6 0-11 2-15 7-4 4-6 9-6 15 0 6 2 11 6 15l61 60z"/>
<glyph glyph-name="folder" unicode="&#57355;" d="M85 85c-11 0-21 5-30 13-8 8-12 18-12 30l0 256c0 12 4 22 12 30 9 8 19 13 30 13l111 0c5 0 11-1 16-4 5-2 10-5 14-9l30-30 171 0c11 0 21-4 30-13 8-8 12-18 12-30l0-213c0-12-4-22-12-30-9-8-19-13-30-13z"/>
<glyph glyph-name="folder-open" unicode="&#57356;" d="M469 341l-302 0c-22 0-41-7-57-20-16-14-25-32-25-53l0-140 42 140c3 10 9 17 16 22 8 6 16 9 26 9l275 0c14 0 26-6 34-18 8-11 11-24 7-37l-39-128c-2-10-8-17-15-22-8-6-16-9-26-9l-320 0c-11 0-21 5-30 13-8 8-12 18-12 30l0 256c0 12 4 22 12 30 9 8 19 13 30 13l111 0c5 0 11-1 16-4 5-2 10-5 14-9l30-30 171 0c11 0 21-4 30-13 8-8 12-18 12-30z"/>
<glyph glyph-name="follow-the-signs" unicode="&#57357;" d="M203 395c-12 0-22 4-30 12-9 9-13 19-13 30 0 12 4 22 13 30 8 9 18 13 30 13 11 0 21-4 30-13 8-8 12-18 12-30 0-11-4-21-12-30-9-8-19-12-30-12z m-139-374l59 301-38-16 0-71-42 0 0 100 112 46c9 4 19 4 29 1 10-3 18-9 23-18l20-34c10-16 23-29 39-38 16-10 34-15 54-15l0-42c-23 0-45 5-65 15-20 10-37 23-51 40l-13-64 44-44 0-161-43 0 0 128-46 43-37-171z m293 0l0 299-80 0 0 149 192 0 0-149-80 0 0-299z m28 321l52 53-52 52-23-22 13-14-66 0 0-32 66 0-13-14z"/>
<glyph glyph-name="format-align-left" unicode="&#57358;" d="M85 64c-6 0-11 2-15 6-4 4-6 9-6 15 0 6 2 11 6 16 4 4 9 6 15 6l342 0c6 0 11-2 15-6 4-5 6-10 6-16 0-6-2-11-6-15-4-4-9-6-15-6z m0 85c-6 0-11 2-15 6-4 5-6 10-6 16 0 6 2 11 6 15 4 4 9 6 15 6l214 0c6 0 11-2 15-6 4-4 6-9 6-15 0-6-2-11-6-16-4-4-9-6-15-6z m0 86c-6 0-11 2-15 6-4 4-6 9-6 15 0 6 2 11 6 15 4 4 9 6 15 6l342 0c6 0 11-2 15-6 4-4 6-9 6-15 0-6-2-11-6-15-4-4-9-6-15-6z m0 85c-6 0-11 2-15 6-4 4-6 9-6 15 0 6 2 11 6 16 4 4 9 6 15 6l214 0c6 0 11-2 15-6 4-5 6-10 6-16 0-6-2-11-6-15-4-4-9-6-15-6z m0 85c-6 0-11 2-15 6-4 5-6 10-6 16 0 6 2 11 6 15 4 4 9 6 15 6l342 0c6 0 11-2 15-6 4-4 6-9 6-15 0-6-2-11-6-16-4-4-9-6-15-6z"/>
<glyph glyph-name="format-quote" unicode="&#57359;" d="M140 160l31 53c-24 0-44 9-61 25-16 17-25 37-25 61 0 23 9 43 25 60 17 17 37 25 61 25 23 0 43-8 60-25 17-17 25-37 25-60 0-9-1-16-3-23-2-7-5-14-9-20l-67-117c-2-4-5-6-8-8-3-2-7-3-11-3-8 0-14 4-18 11-4 7-4 14 0 21z m192 0l31 53c-24 0-44 9-61 25-16 17-25 37-25 61 0 23 9 43 25 60 17 17 37 25 61 25 23 0 43-8 60-25 17-17 25-37 25-60 0-9-1-16-3-23-2-7-5-14-9-20l-67-117c-2-4-5-6-8-8-3-2-7-3-11-3-8 0-14 4-18 11-4 7-4 14 0 21z"/>
<glyph glyph-name="grade" unicode="&#57360;" d="M256 122l-89-53c-3-3-8-4-12-3-4 0-8 1-11 4-3 2-6 5-7 9-2 4-3 8-2 13l24 101-78 67c-4 3-6 7-7 11-1 4-1 8 1 12 1 4 3 7 6 10 3 2 7 4 12 5l103 9 40 95c2 4 5 7 9 9 3 2 7 3 11 3 4 0 8-1 11-3 4-2 7-5 9-9l40-95 103-9c5-1 9-3 12-5 3-3 5-6 6-10 2-4 2-8 1-12-1-4-3-8-7-11l-78-67 24-101c1-5 0-9-2-13-1-4-4-7-7-9-3-3-7-4-11-4-4-1-9 0-12 3z"/>
<glyph glyph-name="group" unicode="&#57361;" d="M21 145c0 12 3 23 10 33 6 11 14 18 24 24 23 11 45 19 68 24 22 6 46 9 69 9 23 0 47-3 69-9 23-5 45-13 68-24 10-6 18-13 24-24 7-10 10-21 10-33l0-17c0-12-5-22-13-30-8-8-18-13-30-13l-256 0c-12 0-22 5-30 13-8 8-13 18-13 30z m373-60c4 7 6 14 8 21 2 7 3 15 3 22l0 21c0 16-4 31-13 45-8 15-21 27-37 37 18-2 35-5 51-10 16-6 31-12 45-19 13-8 23-15 30-24 6-9 10-18 10-29l0-21c0-12-5-22-13-30-8-8-18-13-30-13z m-202 171c-23 0-44 8-60 25-17 17-25 37-25 60 0 24 8 44 25 61 16 16 37 25 60 25 23 0 44-9 60-25 17-17 25-37 25-61 0-23-8-43-25-60-16-17-37-25-60-25z m213 85c0-23-8-43-25-60-16-17-37-25-60-25-4 0-9 0-15 1-6 1-11 2-15 3 10 12 17 24 22 38 5 14 8 28 8 43 0 15-3 30-8 44-5 13-12 26-22 37 5 2 10 3 15 4 5 0 10 1 15 1 23 0 44-9 60-25 17-17 25-37 25-61z"/>
<glyph glyph-name="group-add" unicode="&#57362;" d="M267 257c10 11 18 24 23 39 6 15 9 30 9 45 0 16-3 31-9 46-5 14-13 27-23 39 21-3 39-13 53-29 14-16 21-34 21-56 0-21-7-40-21-56-14-16-32-25-53-28z m105-172c4 7 7 14 9 21 2 7 3 15 3 22l0 21c0 13-3 25-9 37-5 11-13 22-22 31 18-7 35-15 50-25 16-10 24-25 24-43l0-21c0-12-5-22-13-30-8-8-18-13-30-13z m55 192l-22 0c-6 0-11 2-15 6-4 5-6 10-6 16 0 6 2 11 6 15 4 4 9 6 15 6l22 0 0 21c0 6 2 11 6 16 4 4 9 6 15 6 6 0 11-2 15-6 4-5 6-10 6-16l0-21 22 0c6 0 11-2 15-6 4-4 6-9 6-15 0-6-2-11-6-16-4-4-9-6-15-6l-22 0 0-21c0-6-2-11-6-15-4-4-9-6-15-6-6 0-11 2-15 6-4 4-6 9-6 15z m-256-21c-24 0-44 8-61 25-16 17-25 37-25 60 0 24 9 44 25 61 17 16 37 25 61 25 23 0 43-9 60-25 17-17 25-37 25-61 0-23-8-43-25-60-17-17-37-25-60-25z m-171-128l0 17c0 12 3 23 9 33 7 11 15 18 25 24 22 11 45 19 67 24 23 6 46 9 70 9 23 0 46-3 69-9 23-5 45-13 67-24 11-6 19-13 25-24 6-10 9-21 9-33l0-17c0-12-4-22-12-30-9-8-19-13-30-13l-256 0c-12 0-22 5-30 13-9 8-13 18-13 30z"/>
<glyph glyph-name="group-work" unicode="&#57363;" d="M171 171c11 0 21 4 30 12 8 9 12 19 12 30 0 12-4 22-12 30-9 9-19 13-30 13-12 0-22-4-30-13-9-8-13-18-13-30 0-11 4-21 13-30 8-8 18-12 30-12z m170 0c12 0 22 4 30 12 9 9 13 19 13 30 0 12-4 22-13 30-8 9-18 13-30 13-11 0-21-4-30-13-8-8-12-18-12-30 0-11 4-21 12-30 9-8 19-12 30-12z m-85 128c12 0 22 4 30 12 8 9 13 19 13 30 0 12-5 22-13 30-8 9-18 13-30 13-12 0-22-4-30-13-8-8-13-18-13-30 0-11 5-21 13-30 8-8 18-12 30-12z m0-256c-30 0-57 5-83 16-26 12-49 27-68 46-19 19-34 42-46 68-11 26-16 53-16 83 0 30 5 57 16 83 12 26 27 49 46 68 19 19 42 34 68 46 26 11 53 16 83 16 30 0 57-5 83-16 26-12 49-27 68-46 19-19 34-42 46-68 11-26 16-53 16-83 0-30-5-57-16-83-12-26-27-49-46-68-19-19-42-34-68-46-26-11-53-16-83-16z"/>
<glyph glyph-name="groups" unicode="&#57364;" d="M21 128c-6 0-11 2-15 6-4 4-6 9-6 15l0 13c0 15 8 27 23 37 16 10 37 14 62 14 5 0 9 0 14 0 4 0 8-1 12-1-5-8-9-16-11-24-3-8-4-16-4-25l0-35z m128 0c-6 0-11 2-15 6-4 4-6 9-6 15l0 14c0 11 3 21 9 31 7 9 15 18 27 25 11 7 25 12 41 16 15 3 33 5 51 5 19 0 36-2 52-5 16-4 29-9 41-16 11-7 20-16 26-25 6-10 9-20 9-31l0-14c0-6-2-11-6-15-4-4-9-6-15-6z m267 0l0 35c0 9-1 18-3 26-3 8-6 16-11 23 4 0 8 1 12 1 4 0 8 0 13 0 25 0 46-4 62-14 15-9 23-22 23-37l0-13c0-6-2-11-6-15-4-4-9-6-15-6z m-331 107c-11 0-21 4-30 12-8 9-12 19-12 30 0 12 4 23 12 31 9 8 19 12 30 12 12 0 23-4 31-12 8-8 12-19 12-31 0-11-4-21-12-30-8-8-19-12-31-12z m342 0c-12 0-22 4-30 12-9 9-13 19-13 30 0 12 4 23 13 31 8 8 18 12 30 12 12 0 22-4 30-12 8-8 12-19 12-31 0-11-4-21-12-30-8-8-18-12-30-12z m-171 21c-18 0-33 6-45 19-13 12-19 27-19 45 0 18 6 33 19 46 12 12 27 18 45 18 18 0 33-6 46-18 12-13 18-28 18-46 0-18-6-33-18-45-13-13-28-19-46-19z"/>
<glyph glyph-name="groups-2" unicode="&#57365;" d="M219 256c-10 0-18 4-24 11-7 8-9 16-7 26l6 39c3 15 10 28 22 37 11 10 25 15 40 15 16 0 29-5 41-15 11-9 19-22 21-37l7-39c2-10-1-18-7-26-7-7-15-11-25-11z m13 43l49 0-5 26c0 5-3 9-7 12-4 3-8 4-13 4-5 0-9-1-13-4-4-3-6-7-7-12z m-166-64c-8 0-15 1-21 5-6 4-10 9-11 17-1 3-1 6-1 9 0 3 1 6 3 9 0 0 0 1-1 2-1 1-2 5-5 13-1 4 0 8 1 12 2 4 5 8 7 11l1 1c1 6 4 12 9 17 5 4 10 7 18 7 1 0 4-1 10-3l1 1c2 2 4 3 7 4 3 1 6 1 9 1 4 0 8 0 11-2 3-1 5-3 7-5 0 0 1 0 1 0 0-1 0-1 1-1 5 0 9-2 13-4 3-3 6-7 8-11 1-3 1-5 1-7-1-3-1-5-2-7 0 0 1-1 1-2 2-3 4-5 6-8 1-3 2-7 2-10 0-1-1-5-3-11-1-1-1-1 0-2l1-9c0-7-3-13-10-19-6-5-13-8-22-8z m361 0c-12 0-22 4-30 12-9 9-13 19-13 30 0 5 1 9 2 12 1 4 3 8 5 11l-15 14c-4 2-4 6-2 10 2 5 6 7 10 7l43 0c11 0 21-5 30-13 8-8 12-18 12-30l0-11c0-11-4-21-12-30-9-8-19-12-30-12z m-427-86l0 13c0 15 8 28 24 37 16 10 36 14 61 14 5 0 9 0 14 0 4 0 8-1 12-1-5-7-9-15-11-23-3-8-4-17-4-26l0-35-75 0c-6 0-11 2-15 6-4 4-6 9-6 15z m128 0l0 14c0 23 12 41 35 56 24 14 55 21 93 21 38 0 69-7 93-21 23-15 35-33 35-56l0-14c0-6-2-11-6-15-4-4-9-6-15-6l-214 0c-6 0-11 2-15 6-4 4-6 9-6 15z m299 64c25 0 46-4 62-14 15-9 23-22 23-37l0-13c0-6-2-11-6-15-4-4-9-6-15-6l-75 0 0 35c0 9-1 18-3 26-3 8-6 16-11 23 4 0 8 1 12 1 4 0 8 0 13 0z m-195 86l4 26c1 5 3 9 7 12 4 3 8 4 13 4 5 0 9-1 13-4 4-3 7-7 7-12l5-26z"/>
<glyph glyph-name="handshake" unicode="&#57366;" d="M258 64c-6 0-11 2-15 6-4 4-6 9-6 15 0 3 0 5 1 8 1 3 3 5 5 7l91 91c3 3 4 5 4 8 0 3-1 6-4 8-2 2-4 3-7 3-3 0-6-1-8-4l-91-90c-2-2-4-4-7-5-2-1-5-2-8-2-6 0-11 2-15 6-4 5-6 10-6 16 0 3 1 6 2 8 1 3 2 5 4 7l91 91c2 2 3 4 3 7 0 3-1 6-3 8-2 2-5 3-7 3-3 0-6-1-8-3l-91-91c-2-2-5-4-7-5-2-1-5-1-9-1-5 0-10 2-14 6-5 4-7 9-7 15 0 3 1 6 2 8 1 2 2 5 5 7l90 91c2 2 3 4 3 7 0 3-1 6-3 8-2 2-4 3-7 3-3 0-6-1-8-3l-90-91c-2-2-4-3-7-4-2-1-5-2-9-2-6 0-11 2-15 6-4 4-6 9-6 15 0 3 0 6 1 8 1 3 3 5 5 7l105 105c4 4 9 5 14 5 6 0 11-2 15-6l65-65c4-4 9-7 14-10 5-2 11-3 16-3 11 0 21 4 30 12 8 8 13 18 13 31 0 5-1 10-3 15-2 5-5 10-10 15l-95 95c6 6 13 10 20 13 8 3 15 5 23 5 9 0 17-2 25-5 8-3 15-7 22-14l90-90c6-7 11-14 14-22 3-7 4-17 4-27 0-7-1-14-4-21-4-8-8-14-14-20l-178-179c-3-2-5-4-7-5-3-1-5-1-8-1z m-183 171l-14 14c-6 5-10 12-14 20-3 8-4 16-4 24 0 10 1 18 5 26 4 8 8 14 13 20l90 90c6 6 13 11 21 14 8 3 15 5 23 5 9 0 18-1 25-4 8-3 15-8 22-15l109-109c3-2 4-4 5-7 1-2 2-5 2-8 0-6-2-11-7-15-4-4-9-6-14-6-4 0-6 0-8 1-3 1-5 3-7 5l-66 65c-8 8-18 12-30 12-12 0-22-4-30-12z"/>
<glyph glyph-name="health-and-safety" unicode="&#57367;" d="M224 235l0-32c0-6 2-11 6-16 4-4 9-6 15-6l22 0c6 0 11 2 15 6 4 5 6 10 6 16l0 32 32 0c6 0 11 2 15 6 4 4 6 9 6 15l0 21c0 6-2 11-6 16-4 4-9 6-15 6l-32 0 0 32c0 6-2 11-6 15-4 4-9 6-15 6l-22 0c-6 0-11-2-15-6-4-4-6-9-6-15l0-32-32 0c-6 0-11-2-15-6-4-5-6-10-6-16l0-21c0-6 2-11 6-15 4-4 9-6 15-6z m32-190c-2 0-5 0-7 0-2 1-4 1-6 2-48 16-87 46-115 89-28 43-43 89-43 139l0 101c0 9 3 17 8 24 5 7 12 12 20 15l128 48c5 2 10 3 15 3 5 0 10-1 15-3l128-48c8-3 15-8 20-15 5-7 8-15 8-24l0-101c0-50-15-96-43-139-28-43-67-73-115-89-2-1-4-1-6-2-2 0-5 0-7 0z"/>
<glyph glyph-name="highlight" unicode="&#57368;" d="M106 356l-16 15c-5 4-7 9-7 15 1 6 3 11 7 15 4 4 9 7 15 7 6 0 11-2 15-6l15-16c4-4 6-9 7-15 0-5-2-10-7-15-3-4-8-6-14-6-6 0-11 2-15 6z m129 71l0 21c0 6 2 11 6 15 4 4 9 6 15 6 6 0 11-2 15-6 4-4 6-9 6-15l0-21c0-6-2-11-6-16-4-4-9-6-15-6-6 0-11 2-15 6-4 5-6 10-6 16z m143-40l15 15c3 4 8 5 14 5 6 0 11-2 15-6 4-4 6-9 6-15 0-6-2-11-6-15l-15-15c-3-4-8-6-14-6-6 0-11 2-15 6-5 4-7 9-7 15 0 6 2 11 7 16z m-186-302l0 64-52 52c-4 4-7 9-9 14-2 5-3 10-3 16l0 46c0 12 4 22 13 30 8 9 18 13 30 13l170 0c12 0 22-4 30-13 9-8 13-18 13-30l0-46c0-6-1-11-3-16-2-5-5-10-9-14l-52-52 0-64c0-11-4-21-13-30-8-8-18-12-30-12l-42 0c-12 0-22 4-30 12-9 9-13 19-13 30z"/>
<glyph glyph-name="hiking" unicode="&#57369;" d="M233 192l-35-154c-1-5-4-9-8-12-4-3-9-5-14-5-7 0-13 3-17 8-4 6-6 12-4 18l60 306c2 10 7 18 14 23 8 5 16 8 24 8 8 0 16-2 22-5 7-4 13-9 17-16l22-34c6-11 14-20 24-28 11-9 22-15 35-19l0 22c0 5 2 8 5 11 3 3 7 5 11 5 5 0 9-2 12-5 3-3 4-6 4-11l0-267c0-4-1-8-4-11-3-3-7-5-12-5-4 0-8 2-11 5-3 3-5 7-5 11l0 201c-17 4-33 10-47 19-15 8-27 19-38 31l-13-64 39-36c2-2 3-5 4-7 1-3 2-6 2-9l0-129c0-6-2-11-6-16-4-4-9-6-15-6-6 0-11 2-16 6-4 5-6 10-6 16l0 106z m-95 44l-25 5c-6 1-10 4-13 8-3 5-5 11-3 17l16 83c2 12 8 22 19 28 10 6 22 8 34 5 6-1 11-4 14-8 3-5 4-11 3-17l-20-104c-1-6-4-11-9-14-5-3-10-4-16-3z m150 159c-12 0-22 4-30 12-8 9-13 19-13 30 0 12 5 22 13 30 8 9 18 13 30 13 12 0 22-4 30-13 8-8 13-18 13-30 0-11-5-21-13-30-8-8-18-12-30-12z"/>
<glyph glyph-name="history-edu" unicode="&#57370;" d="M171 85c-12 0-22 5-30 13-9 8-13 18-13 30l0 43c0 6 2 11 6 15 4 4 9 6 15 6l43 0 0 48c-11 1-21 3-32 7-10 3-19 9-27 16-2 3-4 5-5 8-2 2-2 5-2 8l0 14-16 0c-2 0-5 1-8 2-3 1-5 3-7 5l-48 48c-4 4-6 9-6 15 0 5 2 10 6 15 10 10 24 17 42 22 17 5 33 7 48 7 9 0 18 0 28-2 9-1 18-4 27-8 0 9 3 15 9 21 5 6 12 9 20 9l184 0c12 0 22-5 30-13 9-8 13-18 13-30l0-235c0-17-6-33-19-45-12-12-27-19-45-19z m64 107l106 0c6 0 11-2 16-6 4-4 6-9 6-15l0-22c0-6 2-11 6-15 4-4 9-6 15-6 6 0 11 2 15 6 4 4 6 9 6 15l0 235-170 0 0-13 122-122c3-3 5-7 6-11 0-4 0-8-2-12-2-4-4-7-7-9-4-3-8-4-13-4-3 0-5 1-8 2-3 1-5 3-7 5l-54 54-4-4c-5-5-10-10-16-13-6-4-11-7-17-10z m-116 144l28 0c6 0 11-2 15-6 4-4 7-9 7-15l0-25c4-3 8-5 13-6 4-1 9-1 14-1 8 0 16 1 22 3 7 3 13 7 20 14l4 4-30 30c-10 10-22 18-34 23-13 5-27 8-41 8-8 0-14-1-21-2-6-1-13-2-19-5z"/>
<glyph glyph-name="home" unicode="&#57371;" d="M85 107l0 192c0 6 2 13 5 19 3 6 7 11 12 15l128 96c8 5 16 8 26 8 10 0 18-3 26-8l128-96c5-4 9-9 12-15 3-6 5-13 5-19l0-192c0-12-5-22-13-30-8-9-18-13-30-13l-64 0c-6 0-11 2-15 6-4 4-6 9-6 15l0 107c0 6-2 11-6 15-5 4-10 6-16 6l-42 0c-6 0-11-2-16-6-4-4-6-9-6-15l0-107c0-6-2-11-6-15-4-4-9-6-15-6l-64 0c-12 0-22 4-30 13-8 8-13 18-13 30z"/>
<glyph glyph-name="hub" unicode="&#57372;" d="M128 21c-18 0-33 7-45 19-13 12-19 28-19 45 0 18 6 33 19 46 12 12 27 18 45 18 5 0 10 0 14-1 4-1 8-3 12-5l31 38c-10 11-17 24-21 38-4 14-5 27-3 41l-43 15c-6-9-14-16-23-22-9-5-20-8-31-8-18 0-33 7-45 19-13 12-19 28-19 45 0 18 6 33 19 46 12 12 27 18 45 18 18 0 33-6 45-18 13-13 19-28 19-46l0-4 43-15c7 13 17 24 29 33 12 9 25 14 40 17l0 46c-14 4-25 12-34 23-9 11-14 24-14 39 0 18 6 33 19 45 12 13 27 19 45 19 18 0 33-6 45-19 13-12 19-27 19-45 0-15-5-28-14-39-9-11-20-19-34-23l0-46c15-3 28-8 40-17 12-9 22-20 29-33l43 15 0 4c0 18 6 33 19 46 12 12 27 18 45 18 18 0 33-6 45-18 13-13 19-28 19-46 0-17-6-33-19-45-12-12-27-19-45-19-11 0-22 3-31 8-10 6-17 13-23 22l-43-15c2-14 1-27-3-41-4-14-11-26-21-38l31-37c4 2 8 3 12 4 4 1 9 1 14 1 18 0 33-6 45-18 13-13 19-28 19-46 0-17-6-33-19-45-12-12-27-19-45-19-18 0-33 7-45 19-13 12-19 28-19 45 0 7 1 14 3 21 3 6 6 12 10 18l-31 38c-14-9-30-13-46-13-17 0-32 4-47 13l-30-38c4-6 7-12 10-18 2-7 3-14 3-21 0-17-6-33-19-45-12-12-27-19-45-19z"/>
<glyph glyph-name="image" unicode="&#57373;" d="M107 64c-12 0-22 4-30 13-9 8-13 18-13 30l0 298c0 12 4 22 13 30 8 9 18 13 30 13l298 0c12 0 22-4 30-13 9-8 13-18 13-30l0-298c0-12-4-22-13-30-8-9-18-13-30-13z m42 85l214 0c4 0 7 2 9 6 2 4 2 8-1 11l-58 79c-3 3-5 4-9 4-4 0-6-1-9-4l-55-74-39 52c-3 3-5 5-9 5-4 0-6-2-9-5l-42-57c-3-3-3-7-1-11 2-4 5-6 9-6z"/>
<glyph glyph-name="import-contacts" unicode="&#57374;" d="M277 148c16 8 32 13 48 17 15 4 32 6 48 6 13 0 26-1 38-4 12-2 25-5 37-9l0 211c-12 5-24 9-37 11-12 3-25 4-38 4-16 0-33-2-49-6-17-5-32-11-47-20z m-21-51c-5 0-10 0-14 1-5 2-9 3-13 5-14 9-28 15-43 19-16 4-31 6-47 6-15 0-30-2-44-6-15-4-29-9-42-16-7-4-14-4-21 0-7 4-11 11-11 19l0 257c0 4 1 8 3 11 2 4 5 6 9 8 17 8 34 15 52 19 17 4 35 7 54 7 20 0 40-3 60-8 20-6 39-14 57-24 18 10 37 18 57 24 20 5 40 8 60 8 19 0 37-3 54-7 18-4 35-11 52-19 4-2 7-4 9-8 2-3 3-7 3-11l0-257c0-8-4-15-11-19-7-4-14-4-21 0-13 7-27 12-42 16-14 4-29 6-44 6-16 0-31-2-47-6-15-4-29-10-43-19-4-2-8-3-13-5-4-1-9-1-14-1z"/>
</font>
</defs>
</svg>
